マジLOVE2000%
ST☆RISH

EXTREME

Level: 9
BPM: 141
Notes: 473

1
口口口口 |----|
口口口口 |----|
口口口口 |----|
口口口口 |----|
2
口口①① |----|
口口④② |----|
口④②口 |--①-|
④口③③ |②③-④|
3
①口⑤① |----|
口②口口 |①-②-|
④口口③ |③--④|
口口口口 |--⑤-|
4
口口口口 |--①-|
①③口① |②-③④|
口⑦④⑥ |⑤--⑥|
②⑤口② |--⑦-|
5
口①口⑤ |----|
口②口口 |①-②③|
⑥口③口 |④--⑤|
口④①口 |--⑥-|
6
口⑥口口 |--①-|
②④⑤② |②---|
口口③口 |③-④-|
①口口① |⑤-⑥-|
7
①口口② |--①-|
口④口口 |②---|
②③③① |③---|
口口口口 |--④-|
8
②①②口 |--①-|
①口①口 |②---|
②①②口
口口口口

口口口⑥
口口口口
口⑤口口 |③-④-|
③口口④ |⑤-⑥-|
9
口①口口 |----|
①①口口 |①---|
口③②口 |②---|
③口口② |③---|
10
口口①口 |①---|
口口①① |----|
口口口口
口口口口

②②口④
口口④口
口④口口 |②--③|
口口③③ |--④-|
11
口口口口 |--①-|
口②口口 |②---|
①口①口 |----|
口②口口 |----|
12
口①口口 |①---|
①①口口 |----|
①①②② |②---|
口口②② |----|
13
③口②② |①---|
①④口口 |②---|
①⑤口口 |③-④-|
①⑥口口 |⑤-⑥-|
14
口口①① |①---|
口口①口 |----|
口口口①
口口①①

口口口口
口口口口
口口口② |--②-|
口口④③ |③-④-|
15
①①①口 |①---|
口①口口 |----|
口①口口
口口口口

③②口口
④口口口
口口口口 |--②-|
口口口口 |③-④-|
16
口口②③ |①---|
口口①④ |----|
口①口① |--②-|
口①口① |③-④-|
17
口口口口 |①---|
①①口口 |----|
①①口口
①口①口

口口口口
口口口口
②口口口 |--②-|
③④口口 |③-④-|
18
口口口① |①---|
口口口① |----|
口口口①
口口口①

口口②③
口口口④
口口口口 |--②-|
口口口口 |③-④-|
19
①①口口 |①---|
①口口口 |----|
口①口口
①①口口

口口口口
口口口口
④口口口 |--②-|
③②口口 |③-④-|
20
口①口① |①---|
口①①① |②---|
口①口①
口②②口

口④口④
口口口口
③口③口 |③---|
口口口口 |④---|
21
⑦⑦⑧⑧ |①-②-|
⑤⑤⑥⑥ |③-④-|
③③④④ |⑤-⑥-|
①①②② |⑦-⑧-|
22
⑦口口口 |--①-|
①②口口 |②-③-|
③⑥口口 |④-⑤-|
⑤④口口 |⑥-⑦-|
23
口口口① |--①-|
口口口口 |②---|
口口口口
口口②口

口口口口
口口③③
口口④④ |③--④|
口口⑤⑤ |--⑤-|
24
⑤口①④ |--①-|
口③③口 |②---|
口口口口 |③--④|
④②口⑤ |--⑤-|
25
口①口口 |--①-|
口③口③ |②---|
③口③口 |--③-|
口口②口 |----|
26
口⑥①① |--①-|
④口①③ |②-③-|
口⑤③② |--④-|
口③②② |⑤-⑥-|
27
口口②口 |--①-|
口口口口 |--②-|
口口口口
口口①①

口口口口
口口③③
口口④④ |③--④|
口口⑤⑤ |--⑤-|
28
口口口口 |--①-|
③②①③ |--②-|
④①②④ |③--④|
口⑤口口 |--⑤-|
29
口口①① |①-②-|
口口④② |③-④-|
口④②口
④口③③

⑤口⑥口
⑤⑤口口
口口口口 |⑤---|
口⑥口口 |⑥---|
30
口口⑥① |--①-|
⑦口③④ |②-③④|
口口⑤② |--⑤-|
口口口口 |⑥-⑦-|
31
口口口口 |--①-|
口⑤口口 |②---|
③②口口 |③--④|
①④口口 |--⑤-|
32
口④①口 |--①-|
⑤口口② |②-③-|
口⑥③口 |④-⑤-|
口口口口 |⑥---|
33
③口④③ |①---|
②口口① |②---|
口③③口 |③---|
①口口② |--④-|
34
口⑦口口 |--①-|
口⑤⑤① |②③-④|
口口②③ |--⑤-|
口⑥⑥④ |⑥-⑦-|
35
口口口口 |--①-|
①⑤⑤口 |②③-④|
③②口口 |--⑤-|
④⑥⑥口 |⑥---|
36
口②①口 |①---|
④口口③ |②---|
口①②口 |③---|
③口口④ |④---|
37
口口⑥⑦ |①-②-|
⑤口口口 |③-④-|
口③④口 |⑤-⑥⑦|
口①②口 |----|
38
口④口④ |①---|
③口③口 |②---|
口②口② |③---|
①口①口 |④---|
39
口口口口 |①---|
②①口① |②---|
口②①口
口口口口

口⑤④口
⑤口③④
④口口⑤ |③--④|
口④⑤口 |--⑤-|
40
口口口③ |----|
口口①② |----|
口口②① |①--②|
口口口口 |--③-|
41
③③口口 |①--②|
②②口口 |--③-|
口口口口
①①口口

口口④④
口口⑦⑤
口⑦⑤口 |--④-|
⑦口⑥⑥ |⑤⑥-⑦|
42
①口⑤① |----|
口②口口 |①-②-|
④口口③ |③--④|
口口口口 |--⑤-|
43
口口口口 |--①-|
①③口① |②-③④|
口⑦④⑥ |⑤--⑥|
②⑤口② |--⑦-|
44
口①口⑤ |----|
口②口口 |①-②③|
⑥口③口 |④--⑤|
口④①口 |--⑥-|
45
口⑥口口 |--①-|
②④⑤② |②---|
口口③口 |③-④-|
①口口① |⑤-⑥-|
46
口口口④ |--①-|
口②口④ |②---|
①③①③ |③---|
口②口口 |--④-|
47
②口口⑥ |--①-|
②口口口 |②---|
口⑤口口 |③-④-|
③①①④ |⑤-⑥-|
48
③口口③ |----|
口口口口 |①---|
②口②口 |②---|
口①口① |③---|
49
口口口口 |①-②-|
口①①口 |③---|
口②②口
口③③口

⑤⑥⑥④
口⑥⑥口
口口口口 |④--⑤|
④口口⑤ |--⑥-|
50
口口口口 |--①-|
①口口② |②---|
①口口② |----|
口口口口 |----|
51
口①②口 |①②-③|
口③④口 |④-⑤⑥|
口口口口
口⑤⑥口

⑨⑨口口
口口口口
⑦口口⑧ |-⑦⑧-|
口口口口 |⑨---|
52
口口①① |①②-③|
口口③① |--④⑤|
④③②⑤
③口②②

口⑥⑦口
口口口⑨
口口口口 |-⑥⑦-|
口⑧口口 |⑧-⑨-|
53
①口口口 |①---|
①口口口 |----|
①①口口
口口口口

③口③口
口②口②
口口②口 |②---|
④②④口 |③-④-|
54
③③③③ |----|
①①②② |①-②-|
①①②② |----|
④④④④ |③-④-|

不確定度: 0

最終更新:2014年08月01日 22:53