Stand Alone Beat Masta
GUHROOVY

ADVANCED

Level: 9
BPM: 200
Notes: 753

1
口口口口 |----|
口口口口 |----|
口口口口 |----|
口口口口 |----|
2
口口口口 |①-②-|
③④⑤口 |--③-|
口口口口 |--④-|
口①②口 |--⑤-|
3
③④⑤口 |①-②-|
口口口口 |--③-|
口口口口 |--④-|
口①②口 |--⑤-|
4
口口口口 |①-②-|
③④⑤口 |--③-|
口口口口 |--④-|
口①②口 |--⑤-|
5
③④口口 |①-②-|
口口口⑤ |--③-|
⑥口口口 |--④-|
口①②口 |⑤-⑥-|
6
口口口口 |①-②-|
③④⑤口 |--③-|
口口口口 |--④-|
口①②口 |--⑤-|
7
③④⑤口 |①-②-|
口口口口 |--③-|
口口口口 |--④-|
口①②口 |--⑤-|
8
口口口口 |①-②-|
③④⑤口 |--③-|
口口口口 |--④-|
口①②口 |--⑤-|
9
③④口口 |①-②-|
口口口⑤ |--③-|
⑥口口口 |--④-|
口①②口 |⑤-⑥-|
10
⑤口口口 |①-②-|
口口口⑥ |③---|
⑦口④口 |④-⑤-|
口③②① |⑥-⑦-|
11
口口口口 |①-②-|
④口④口 |③---|
口④口④ |④---|
口③②① |----|
12
⑤口口口 |①-②-|
口口口⑥ |③---|
⑦口④口 |④-⑤-|
口③②① |⑥-⑦-|
13
口口④④ |①-②-|
⑤⑤口口 |③-④-|
口口⑥⑥ |--⑤-|
口③②① |--⑥-|
14
口②⑤口 |①---|
口⑥③口 |②-③-|
口口口口 |④---|
①④口① |⑤-⑥-|
15
②口口⑤ |①---|
⑥口口③ |②-③-|
口口口口 |④---|
④口①口 |⑤-⑥-|
16
⑩⑥⑤⑨ |①-②-|
⑫⑧⑦⑪ |③-④-|
口④③口 |⑤⑥⑦⑧|
口②口① |⑨⑩⑪⑫|
17
口④口口 |①---|
口口口口 |--②③|
口口③口 |④---|
口②①① |----|
18
⑦⑤③① |①-②-|
⑧⑥④② |③-④-|
口口口口 |⑤-⑥-|
口口口口 |⑦-⑧-|
19
口口口口 |①-②-|
口口口口 |③-④-|
口口③①
口口④②

口口口口
口口口口
⑦⑤口⑨ |⑤-⑥-|
⑧⑥口口 |⑦-⑧⑨|
20
①③⑤⑦ |①-②-|
②④⑥⑧ |③-④-|
口口口口 |⑤-⑥-|
口口口口 |⑦-⑧-|
21
口口口口 |①-②-|
口口口口 |③-④-|
①③口口
②④口口

口口口口
口口口口
⑨口⑤⑦ |⑤-⑥-|
口口⑥⑧ |⑦-⑧⑨|
22
⑤⑥②① |①-②-|
⑦⑧④③ |③-④-|
口口口口 |⑤-⑥-|
口口口口 |⑦-⑧-|
23
口口口口 |①-②-|
口口口口 |③-④-|
口口②①
口口④③

口口口口
口口口口
⑤⑥口⑨ |⑤-⑥-|
⑦⑧口口 |⑦-⑧⑨|
24
①②⑥⑤ |①-②-|
③④⑧⑦ |③-④-|
口口口口 |⑤-⑥-|
口口口口 |⑦-⑧-|
25
口口口口 |①---|
口口口口 |----|
口①①口 |----|
口①①口 |----|
26
①①口⑧ |①-②-|
口口④④ |③-④-|
⑤口②⑧ |⑤-⑥-|
③⑦⑥⑥ |⑦-⑧-|
27
①①口口 |①-②-|
③③口④ |③-④-|
⑤⑤②⑧ |⑤-⑥-|
⑦口⑥⑥ |⑦-⑧-|
28
①①口④ |①-②-|
口③②④ |③-④-|
⑤口⑥⑧ |⑤-⑥-|
⑦口⑥⑧ |⑦-⑧-|
29
①⑦②④ |①-②-|
①③⑧④ |③-④-|
⑤⑨口口 |⑤-⑥-|
口③⑥⑩ |⑦⑧⑨⑩|
30
①⑦④④ |①-②-|
①口口⑧ |③-④-|
⑤口⑥② |⑤-⑥-|
③口⑥口 |⑦-⑧-|
31
⑦口⑥⑥ |①-②-|
①①口⑧ |③-④-|
⑤⑤口④ |⑤-⑥-|
③③口② |⑦-⑧-|
32
⑦口⑥⑥ |①-②-|
①①⑧⑧ |③-④-|
⑤口④④ |⑤-⑥-|
③口口② |⑦-⑧-|
33
口口口口 |①---|
①①口口 |②-③-|
③口口② |----|
③口口② |----|
34
③④②① |①-②-|
⑥③①⑤ |③-④-|
口⑧⑦口 |⑤-⑥-|
口口口口 |⑦-⑧-|
35
⑧⑦③④ |①-②-|
口口口口 |③-④-|
口口口口 |⑤-⑥-|
⑤⑥②① |⑦-⑧-|
36
口⑧口⑤ |①-②-|
③④②① |③-④-|
⑥③①⑦ |⑤-⑥-|
口口口口 |⑦-⑧-|
37
⑧⑦③④ |①-②-|
口口口口 |③-④-|
口口口口 |⑤-⑥-|
⑤⑥②① |⑦-⑧-|
38
口⑦口口 |①-②-|
③④②① |③-④-|
⑥③①⑤ |⑤--⑥|
口口口口 |--⑦-|
39
⑧⑦③④ |①-②-|
口口口口 |③-④-|
口口口口 |⑤-⑥-|
⑤⑥②① |⑦-⑧-|
40
③口③口 |①---|
①③口① |----|
口口②口 |②---|
口②口② |③---|
41
口③口口 |①---|
③口口口 |②---|
口②④② |③---|
①口①④ |④---|
42
③④②① |①-②-|
⑥③①⑤ |③-④-|
口⑧⑦口 |⑤-⑥-|
口口口口 |⑦-⑧-|
43
⑧⑦③④ |①-②-|
口口口口 |③-④-|
口口口口 |⑤-⑥-|
⑤⑥②① |⑦-⑧-|
44
口⑧口⑤ |①-②-|
③④②① |③-④-|
⑥③①⑦ |⑤-⑥-|
口口口口 |⑦-⑧-|
45
⑧⑦③④ |①-②-|
口口口口 |③-④-|
口口口口 |⑤-⑥-|
⑤⑥②① |⑦-⑧-|
46
口⑧口⑤ |①-②-|
③④②① |③-④-|
口③①⑦ |⑤-⑥-|
⑥口口口 |⑦-⑧-|
47
⑧⑦③④ |①-②-|
口口口口 |③-④-|
口口口口 |⑤-⑥-|
⑤⑥②① |⑦-⑧-|
48
口口口口 |①---|
①③①③ |----|
②①②① |②---|
③②③② |③---|
49
①①①① |①---|
口口口口 |----|
口口口口 |----|
口口口口 |----|
50
口口口口 |----|
口口口口 |----|
口口口口 |----|
口口口口 |----|
51
①口口① |①---|
口口口口 |②-③-|
口④②口 |--④-|
口③⑤口 |⑤---|
52
口①①口 |①---|
口口口口 |②-③-|
④口口② |--④-|
③口口⑤ |⑤---|
53
口口口口 |①---|
①口口① |②-③-|
口②④口 |--④-|
口⑤③口 |⑤---|
54
①口口① |①---|
口口口口 |②-③-|
②口口④ |--④-|
⑤口口③ |⑤---|
55
口口口口 |①---|
口①①口 |②-③-|
口④②口 |--④-|
口③⑤口 |⑤---|
56
口口口口 |①---|
①口口① |②-③-|
④口口② |--④-|
③口口⑤ |⑤---|
57
口①①口 |①---|
口口口口 |②-③-|
口②④口 |--④-|
口⑤③口 |⑤---|
58
①口口① |①---|
口口口口 |②-③-|
②口口④ |--④-|
⑤口口③ |⑤---|
59
②口②口 |①---|
口④①口 |②---|
④①口口 |③---|
口③口③ |--④-|
60
③口口③ |--①-|
口口①② |--②-|
口①②口 |--③-|
口口口口 |----|
61
口口①④ |----|
口口口① |①---|
②口口口 |②---|
③②口口 |③-④-|
62
②口②口 |--①-|
口口口口 |--②-|
口①口① |----|
口口口口 |----|
63
口④①④ |----|
②口口口 |①---|
口口③① |②-③-|
口②口口 |--④-|
64
口口口口 |--①-|
②口②口 |--②-|
口①口① |--③-|
③口口④ |④---|
65
口②口③ |①---|
口①口① |②-③-|
①口①口 |----|
口口口口 |----|
66
③口②口 |①---|
①口①口 |②-③-|
口①口① |----|
口口口口 |----|
67
②口②口 |①---|
口④①口 |②---|
④①口口 |③---|
口③口③ |--④-|
68
③口口③ |--①-|
口口①② |--②-|
口①②口 |--③-|
口口口口 |----|
69
口口①④ |----|
口口口① |①---|
②口口口 |②---|
③②口口 |③-④-|
70
②口②口 |--①-|
口口口口 |--②-|
口①口① |----|
口口口口 |----|
71
口④①④ |----|
②口口口 |①---|
口口③① |②-③-|
口②口口 |--④-|
72
口口口口 |--①-|
②口②口 |--②-|
口①口① |--③-|
③口口④ |④---|
73
口②口③ |①---|
口①口① |②-③-|
①口①口 |----|
口口口口 |----|
74
口口口口 |①---|
①口①口 |----|
口①口① |----|
口口口口 |----|
75
⑥⑤④口 |①--②|
口⑥⑤④ |--③-|
口①②③ |④--⑤|
①②③口 |--⑥-|
76
⑥⑤④⑦ |①--②|
口口⑤④ |--③-|
口①②③ |④--⑤|
①②③口 |--⑥⑦|
77
⑥⑤④口 |①--②|
口⑥⑤④ |--③-|
口①②③ |④--⑤|
①②③口 |--⑥-|
78
⑧口④⑨ |①--②|
⑥口⑤④ |--③-|
口①②③ |④-⑤⑥|
①②③⑦ |⑦-⑧⑨|
79
⑥⑤④口 |①--②|
口⑥⑤④ |--③-|
口①②③ |④--⑤|
①②③口 |--⑥-|
80
⑥口④⑤ |①--②|
口⑧⑦④ |--③-|
口①②③ |④--⑤|
①②③⑨ |⑥⑦⑧⑨|
81
⑩④⑤⑪ |①--②|
⑥⑧⑨⑦ |--③-|
口①②③ |④⑤⑥⑦|
①②③口 |⑧⑨⑩⑪|
82
口②②口 |①---|
口口口口 |----|
①①口口 |②---|
口②②口 |----|
83
④⑦口③ |①②--|
口口⑤⑧ |③--④|
⑥口②口 |⑤⑥--|
①⑥口② |⑦--⑧|
84
④⑦⑧③ |①②--|
⑦①⑤⑧ |③--④|
⑥口口② |⑤⑥--|
口⑥②口 |⑦-⑧-|
85
④口⑧③ |①②--|
⑦①⑤口 |③--④|
⑥口口② |⑤⑥--|
口⑥②口 |⑦--⑧|
86
④⑦口③ |①②--|
口①⑤⑧ |③--④|
⑥⑨口② |⑤⑥--|
口⑥②⑩ |⑦⑧⑨⑩|
87
④⑦口③ |①②--|
口①⑤⑧ |③--④|
⑥口口② |⑤⑥--|
口⑥②口 |⑦--⑧|
88
口⑪⑫③ |①②--|
⑨①④⑩ |③--④|
口⑦⑧② |⑤⑥⑦⑧|
⑤口②⑥ |⑨⑩⑪⑫|
89
④⑧⑧③ |①②--|
⑧①⑤⑧ |③--④|
⑥⑦⑦② |⑤⑥--|
口⑥②口 |⑦-⑧-|
90
口口口口 |①---|
口口口口 |----|
口口口口 |----|
①口口① |----|
91
②口口口 |①---|
③口口口 |②---|
④口口口 |③---|
口口①① |④---|
92
口②口口 |①---|
口③口口 |②---|
口④口口 |③---|
口①口口 |④---|
93
②口口口 |①---|
③口口口 |②---|
④口①① |③---|
口口口口 |④---|
94
口②口口 |①---|
口③口口 |②---|
口④口口 |③---|
口①口口 |④---|
95
②口口口 |①---|
③口①① |②---|
④口口口 |③---|
口口口口 |④---|
96
口②口口 |①---|
口③口口 |②---|
口④口口 |③---|
口①口口 |④---|
97
②口①① |①---|
③口口口 |②---|
④口口口 |③---|
口口口口 |④---|
98
口②口口 |①---|
口③口口 |②---|
口④口口 |③---|
口①口口 |④---|
99
口口口口 |①---|
口口口口 |----|
①口口① |----|
口口口口 |----|


不確定度: 0

最終更新:2014年01月08日 16:53