Gott
Hommarju

ADVANCED

Level: 9
BPM: 195
Notes: 697

1
口口口口 |----|
口口口口 |----|
口口口口 |----|
口口口口 |----|
2
口口口口 |----|
口口口口 |----|
口口口口 |----|
口口口口 |----|
3
口口口口 |----|
口口口口 |----|
口口口口 |----|
口口口口 |----|
4
②口口口 |①---|
口口口③ |②---|
口④⑤口 |③---|
口口①口 |④-⑤-|
5
口口口口 |--①-|
口①②口 |②---|
③口口口 |③---|
口④口口 |--④-|
6
②口口口 |①---|
口口口③ |②---|
口④⑤口 |③---|
口口①口 |④-⑤-|
7
口④口口 |--①-|
口①②口 |②---|
⑥口口⑤ |③-④-|
口口口③ |⑤-⑥-|
8
②口口口 |①---|
口口口③ |②---|
口④⑤口 |③---|
口口①口 |④-⑤-|
9
口口口口 |--①-|
口①②口 |②---|
③口口口 |③---|
口④口口 |--④-|
10
②口口口 |①---|
口口口③ |②---|
口④⑤口 |③---|
口口①口 |④-⑤-|
11
口④口口 |--①-|
口①②口 |②---|
⑥口口⑤ |③-④-|
口口口③ |⑤-⑥-|
12
②口口口 |①---|
口④⑦③ |②-③-|
口⑥⑤口 |④-⑤-|
口口①口 |⑥-⑦-|
13
口③口② |--①-|
口口口④ |②-③-|
⑤口口口 |④-⑤-|
①口口⑥ |⑥---|
14
口口②口 |①---|
③⑦口口 |②-③-|
口①①④ |④-⑤-|
⑤口⑥口 |⑥-⑦-|
15
口⑤②口 |--①-|
③口⑥口 |②-③-|
口⑦口口 |④-⑤-|
口①口④ |⑥-⑦-|
16
②口口口 |①---|
口④⑦③ |②-③-|
口⑥⑤口 |④-⑤-|
口口①口 |⑥-⑦-|
17
口③口② |--①-|
口口口④ |②-③-|
⑤口口口 |④-⑤-|
①口口⑥ |⑥---|
18
口口②口 |①---|
③⑦口口 |②-③-|
口①①④ |④-⑤-|
⑤口⑥口 |⑥-⑦-|
19
口⑤②口 |--①-|
③口⑥口 |②-③-|
口⑦口口 |④-⑤-|
口①口④ |⑥-⑦-|
20
口口口口 |①---|
口口口口 |----|
口口口口 |----|
口口①口 |----|
21
口口口口 |----|
口口口口 |----|
口口口口 |----|
口口口口 |----|
22
①②口口 |①-②-|
③④口口 |③-④-|
口口⑤⑥ |⑤-⑥-|
口口⑦⑧ |⑦-⑧-|
23
口口⑤⑥ |①-②-|
口口⑦⑧ |③-④-|
①②口口 |⑤-⑥-|
③④口口 |⑦-⑧-|
24
①③口口 |①-②-|
⑤⑦口口 |③-④-|
口口②④ |⑤-⑥-|
口口⑥⑧ |⑦-⑧-|
25
口口①③ |①-②-|
口口⑤⑦ |③-④-|
②④口口 |⑤-⑥-|
⑥⑧口口 |⑦-⑧-|
26
①③⑤⑦ |①-②-|
口口口口 |③-④-|
②④⑥⑧ |⑤-⑥-|
口口口口 |⑦-⑧-|
27
口口口口 |①-②-|
①③⑤⑦ |③-④-|
口口口口 |⑤-⑥-|
②④⑥⑧ |⑦-⑧-|
28
口口口口 |①-②-|
①③⑤⑦ |③-④-|
②④⑥⑧ |⑤-⑥-|
口口口口 |⑦-⑧-|
29
①口口② |①-②-|
口⑤⑥口 |③-④-|
口⑤⑥口 |⑤-⑥-|
③⑦⑦④ |--⑦-|
30
口①①口 |①---|
②口口③ |②-③-|
④口口⑤ |④-⑤-|
⑥口口⑦ |⑥-⑦-|
31
⑤口口⑦ |①-②-|
口①③口 |③-④-|
口②④口 |⑤-⑥-|
⑥口口⑧ |⑦-⑧-|
32
⑥口口⑧ |①-②-|
②口口④ |③-④-|
口⑤⑦口 |⑤-⑥-|
口①③口 |⑦-⑧-|
33
口①②口 |①-②-|
口③④口 |③-④-|
⑤口口⑥ |⑤-⑥-|
⑦口口⑧ |⑦-⑧-|
34
①口口② |①-②-|
③⑤⑥④ |③-④-|
口⑤⑥口 |⑤-⑥-|
口⑦⑦口 |--⑦-|
35
口①①口 |①---|
②④⑤③ |②-③-|
口④⑤口 |④-⑤-|
口⑥⑥口 |--⑥-|
36
②①①③ |①---|
②口口③ |②-③-|
④口口⑤ |④-⑤-|
④⑥⑥⑤ |--⑥-|
37
口①①口 |①---|
口④⑤口 |②-③-|
⑥②③⑦ |④-⑤-|
口口口口 |⑥-⑦-|
38
②口口口 |①---|
口④⑦③ |②-③-|
口⑥⑤口 |④-⑤-|
口口①口 |⑥-⑦-|
39
口③口② |--①-|
口口口④ |②-③-|
⑤口口口 |④-⑤-|
①口口⑥ |⑥---|
40
口口②口 |①---|
③⑦口口 |②-③-|
口①①④ |④-⑤-|
⑤口⑥口 |⑥-⑦-|
41
口⑤②口 |--①-|
③口⑥口 |②-③-|
口⑦口口 |④-⑤-|
口①口④ |⑥-⑦-|
42
②口口口 |①---|
口④⑦③ |②-③-|
口⑥⑤口 |④-⑤-|
口口①口 |⑥-⑦-|
43
口③口② |--①-|
口口口④ |②-③-|
⑤口口口 |④-⑤-|
①口口⑥ |⑥---|
44
口⑦②口 |①---|
③口口口 |②-③-|
口①①④ |④-⑤-|
⑤口⑥口 |⑥-⑦-|
45
②口口③ |--①-|
口④⑤① |②-③-|
口④⑤口 |④-⑤-|
口⑥⑥口 |--⑥-|
46
②①①口 |①---|
口④⑦③ |②-③-|
口⑥⑤口 |④-⑤-|
口口口口 |⑥-⑦-|
47
口③口② |--①-|
口口口④ |②-③-|
⑤口口口 |④-⑤-|
①口口⑥ |⑥---|
48
口口②口 |①---|
③⑦口口 |②-③-|
口①①④ |④-⑤-|
⑤口⑥口 |⑥-⑦-|
49
口⑤②口 |--①-|
③口⑥口 |②-③-|
口⑦口口 |④-⑤-|
口①口④ |⑥-⑦-|
50
④口⑤口 |①-②-|
口⑧口① |③-④-|
②口⑦③ |⑤-⑥-|
⑥口口口 |⑦-⑧-|
51
口④口① |①-②-|
⑧口⑤口 |③-④-|
②口⑦口 |⑤-⑥-|
⑥口口③ |⑦-⑧-|
52
④⑧①口 |①-②-|
口口⑦③ |③-④-|
⑥②口口 |⑤-⑥-|
口口⑤口 |⑦-⑧-|
53
口口⑤① |①-②-|
④⑧口口 |③-④-|
⑥②口口 |⑤-⑥-|
口口⑦③ |⑦-⑧-|
54
口口口口 |①---|
口口口口 |----|
口①①口 |----|
口口口口 |----|
55
口口口口 |----|
口口口口 |----|
口口口口 |----|
口口口口 |----|
56
口口口口 |----|
口口口口 |----|
口口口口 |----|
口口口口 |----|
57
口口口口 |----|
口口口口 |----|
口口口口 |----|
口口口口 |----|
58
口口口口 |①-②-|
口⑤⑥口 |③-④-|
口③④口 |⑤-⑥-|
⑦①②⑧ |⑦-⑧-|
59
⑦①④⑧ |①-②-|
口⑤口口 |③-④-|
口口⑥口 |⑤-⑥-|
口③②口 |⑦-⑧-|
60
口⑦⑧口 |①-②-|
③口口② |③-④-|
口口⑥口 |⑤-⑥-|
①⑤口④ |⑦-⑧-|
61
①口口② |①-②-|
③口口④ |③-④-|
⑤口口⑥ |⑤-⑥-|
⑦口口⑧ |⑦-⑧-|
62
口口口口 |①-②-|
口⑤⑥口 |③-④-|
口③④口 |⑤-⑥-|
⑦①②⑧ |⑦-⑧-|
63
⑦①④⑧ |①-②-|
口⑤口口 |③-④-|
口口⑥口 |⑤-⑥-|
口③②口 |⑦-⑧-|
64
口⑦⑧口 |①-②-|
③口口② |③-④-|
口口⑥口 |⑤-⑥-|
①⑤口④ |⑦-⑧-|
65
①口口② |①-②-|
③口口④ |③-④-|
⑤口口⑥ |⑤-⑥-|
⑦口口⑧ |⑦-⑧-|
66
口口口口 |①-②-|
⑦⑤⑥⑧ |③-④-|
口③④口 |⑤-⑥-|
⑦①②⑧ |⑦-⑧-|
67
⑦①④⑧ |①-②-|
口⑤口口 |③-④-|
⑦口⑥⑧ |⑤-⑥-|
口③②口 |⑦-⑧-|
68
口⑦⑧口 |①-②-|
③⑦⑧② |③-④-|
口口⑥口 |⑤-⑥-|
①⑤口④ |⑦-⑧-|
69
③⑦⑧② |①-②-|
③口口② |③-④-|
口①口④ |⑤-⑥-|
⑤口口⑥ |⑦-⑧-|
70
口口口口 |①-②-|
⑦⑤⑥⑧ |③-④-|
口③④口 |⑤-⑥-|
⑦①②⑧ |⑦-⑧-|
71
⑦①④⑧ |①-②-|
口⑤口口 |③-④-|
⑦口⑥⑧ |⑤-⑥-|
口③②口 |⑦-⑧-|
72
口⑦⑧口 |①-②-|
③⑦⑧② |③-④-|
口口⑥口 |⑤-⑥-|
①⑤口④ |⑦-⑧-|
73
①口口② |①-②-|
③口口④ |③-④-|
⑤口口⑥ |⑤-⑥-|
⑦口口⑧ |⑦-⑧-|
74
口口口口 |①---|
口①①口 |----|
口①①口 |----|
口口口口 |----|
75
口口口口 |----|
口口口口 |----|
口口口口 |----|
口口口口 |----|
76
⑦口口⑧ |①-②-|
口⑤⑥口 |③-④-|
⑦口口⑧ |⑤-⑥-|
①②③④ |⑦-⑧-|
77
口⑤⑥口 |①-②-|
①⑦⑧④ |③-④-|
口②③口 |⑤-⑥-|
口⑦⑧口 |⑦-⑧-|
78
口⑦⑧口 |①-②-|
口⑦⑧口 |③-④-|
⑤②③⑥ |⑤-⑥-|
①口口④ |⑦-⑧-|
79
①口口② |①-②-|
⑤口口⑥ |③-④-|
⑦口口⑧ |⑤-⑥-|
口③④口 |⑦-⑧-|
80
⑦口口⑧ |①-②-|
口⑤⑥口 |③-④-|
⑦口口⑧ |⑤-⑥-|
①②③④ |⑦-⑧-|
81
口⑤⑥口 |①-②-|
①⑦⑧④ |③-④-|
口②③口 |⑤-⑥-|
口⑦⑧口 |⑦-⑧-|
82
口⑦⑧口 |①-②-|
口⑦⑧口 |③-④-|
⑤②③⑥ |⑤-⑥-|
①口口④ |⑦-⑧-|
83
④⑤⑤③ |①---|
③口口④ |②---|
口①②口 |③-④-|
口②①口 |--⑤-|
84
口口口口 |①-②-|
口口口口 |③-④-|
口①口①
口②③④

⑦口口⑧
口⑤⑥口
⑦口口⑧ |⑤-⑥-|
口口口口 |⑦-⑧-|
85
口⑤⑥口 |①-②-|
①⑦⑧④ |③-④-|
口②③口 |⑤-⑥-|
口⑦⑧口 |⑦-⑧-|
86
口⑦⑧口 |①-②-|
口⑦⑧口 |③-④-|
⑤②③⑥ |⑤-⑥-|
①口口④ |⑦-⑧-|
87
④口口④ |①---|
口口口⑤ |②-③-|
⑤③②口 |--④-|
②①①③ |--⑤-|
88
⑧⑧⑦⑦ |①-②-|
①④⑤口 |③-④-|
口⑥③① |⑤-⑥-|
②口口口 |⑦-⑧-|
89
⑥口口⑦ |--①-|
口④⑤① |②-③-|
⑥口口⑦ |④-⑤-|
②口口③ |⑥-⑦-|
90
⑦①②⑧ |①-②-|
⑤⑤⑥⑥ |③-④-|
⑦①②⑧ |⑤-⑥-|
③③④④ |⑦-⑧-|
91
口②②口 |①-②-|
口口口口 |③-④-|
口①①口
④③③④

⑥口口⑦
口⑤⑤口
⑥⑧⑧⑦ |⑤-⑥-|
口口口口 |⑦-⑧-|
92
⑤口口⑤ |①-②-|
①③③① |--③-|
口⑥⑥口 |④---|
④②②④ |⑤-⑥-|
93
口①①口 |--①-|
③口口③ |②---|
②口口② |③---|
④口口④ |④---|
94
口口口口 |①---|
口①①口 |----|
口①①口 |----|
口口口口 |----|

不確定度: 0

最終更新:2014年08月01日 23:58