PUNISHER
TAG×PON

EXTREME

Level: 10
BPM: 180
Notes: 928

1
口口口口 |----|
口口口口 |----|
口口口口 |----|
口口口口 |----|
2
⑥③口口 |①-②-|
口⑦⑥④ |③-④-|
⑦⑤②⑥ |⑤--⑥|
⑤①⑦⑤ |--⑦-|
3
④②②④ |-①--|
①口口② |②--③|
⑤③①⑤ |--④-|
③①口③ |⑤---|
4
口口口口 |①---|
口①①口 |----|
口口口口 |----|
口①①口 |----|
5
口口口口 |----|
口口口口 |----|
口口口口 |----|
口口口口 |----|
6
口口口口 |----|
口口口口 |----|
口口口口 |----|
口口口口 |----|
7
口口口口 |----|
口口口口 |----|
口口口口 |----|
口口口口 |----|
8
⑤①②⑤ |①---|
②④③① |②---|
①③④② |③--④|
口②①口 |--⑤-|
9
口①②口 |--①-|
②③③① |②---|
①④④② |③---|
口②①口 |④---|
10
④①②③ |①---|
②口口① |②---|
①⑤⑤② |③--④|
③②①④ |--⑤-|
11
⑨①②⑩ |--①-|
①③④② |②-③④|
⑤⑪⑫⑥ |⑤⑥⑦⑧|
口⑦⑧口 |⑨⑩⑪⑫|
12
⑤口②⑥ |①---|
口③④② |②---|
③口口口 |③--④|
①口口④ |⑤-⑥-|
13
⑥①口⑦ |①-②-|
口⑥⑦口 |③-④-|
口④⑤④ |⑤-⑥-|
②③②口 |⑦---|
14
⑥②口⑤ |①---|
②④口口 |②---|
口口③③ |③--④|
④口口① |⑤-⑥-|
15
口⑦①⑥ |①-②-|
⑦口⑥口 |③-④-|
④⑤④口 |⑤-⑥-|
口②③② |⑦---|
16
⑤口②⑥ |①---|
口③④② |②---|
③口口① |③--④|
①①口④ |⑤-⑥-|
17
⑥①口⑦ |①-②-|
口⑥⑦口 |③-④-|
口④⑤④ |⑤-⑥-|
②③②口 |⑦---|
18
⑤①②⑤ |①---|
①口口② |②---|
③④③④ |③--④|
②②①① |--⑤-|
19
口口⑤口 |--①-|
③④③⑤ |②-③-|
口⑥口口 |④-⑤-|
⑥①②① |⑥---|
20
④①④① |①-②-|
口口③口 |③---|
②⑤⑥口 |④-⑤⑥|
口⑦⑦口 |--⑦-|
21
口口口① |--①-|
②⑥⑤口 |②-③-|
⑦④口⑦ |④-⑤⑥|
口口口③ |--⑦-|
22
②①①② |①---|
⑤③④口 |②---|
口④口⑤ |③---|
口口③口 |④-⑤-|
23
⑦③②② |--①-|
口口④⑧ |②---|
⑨⑤口口 |③④⑤⑥|
①①⑥⑩ |⑦⑧⑨⑩|
24
口口口② |①-②-|
①③口口 |③-④-|
口口④口
①口口口

口⑦⑥口
⑧口口口
口⑧口口 |⑤-⑥⑦|
口⑤口口 |--⑧-|
25
口口口口 |--①-|
口⑥⑤① |②-③-|
②⑦⑦口 |④-⑤⑥|
④口③口 |--⑦-|
26
①②②① |①---|
口④口③ |②---|
③口④口 |③---|
⑤口口口 |④-⑤-|
27
④④③③ |①-②-|
②口口口 |③-④-|
口口口①
口口口口

口口口口
口口口口
⑨⑤⑧⑫ |⑤⑥⑦⑧|
⑪⑦⑥⑩ |⑨⑩⑪⑫|
28
③③②② |①---|
①①口口 |②---|
⑤口口④ |③---|
⑤口口④ |④-⑤-|
29
⑨口口⑧ |--①-|
①⑤④② |②---|
⑦①②⑩ |③④⑤⑥|
口③⑥口 |⑦⑧⑨⑩|
30
⑦⑤⑥⑦ |①-②-|
③⑤⑥④ |③-④-|
口①②口 |⑤--⑥|
①口口口 |--⑦-|
31
口口口口 |--①-|
口⑤⑤口 |②-③-|
②④③① |④--⑤|
④②①③ |----|
32
③①②④ |①-②-|
①⑥⑥② |③-④-|
③口口④ |⑤--⑥|
⑦⑤⑤⑦ |--⑦-|
33
③口口③ |--①-|
①口口② |②---|
④①②⑤ |③--④|
⑤口口④ |--⑤-|
34
口①①口 |①-②-|
②口口口 |③-④-|
口口③口
口④口口

⑥⑦⑦口
口⑥口⑤
口口口口 |⑤--⑥|
口口口口 |--⑦-|
35
口口口口 |--①-|
口口口口 |②-③-|
②⑤①⑤ |④--⑤|
口④口③ |----|
36
①②③① |①--②|
②①①③ |--③-|
④④⑤⑤ |-④--|
口⑥⑦口 |⑤-⑥⑦|
37
②②③③ |①--②|
口⑥⑦口 |--③-|
④口⑤口 |-④--|
④口⑤① |⑤-⑥⑦|
38
②②③③ |①--②|
口口口① |--③-|
⑦⑧口④ |④⑤--|
⑤⑤⑥⑥ |⑥-⑦⑧|
39
②口口③ |①--②|
口②③口 |--③-|
口口①口
口口口口

口⑥⑦口
④口口⑤
口⑥⑦口 |④-⑤-|
④口口⑤ |⑥-⑦-|
40
①口口③ |①-②-|
⑥①③⑥ |③-④-|
②⑦⑦④ |--⑤-|
⑤②④⑤ |⑥-⑦-|
41
①口口③ |①-②-|
⑥①③⑤ |③-④-|
②口口④ |--⑤-|
⑥②④⑤ |⑥---|
42
②①①② |①---|
口④④口 |②---|
③①①③ |③--④|
⑤口口⑤ |--⑤-|
43
⑤⑥⑥④ |①-②-|
②⑨⑧① |③-④⑤|
⑤③③④ |--⑥-|
⑦②①⑦ |⑦-⑧⑨|
44
口③口③ |①---|
④口⑤口 |②---|
②④②⑤ |③--④|
口口①口 |--⑤-|
45
②④②⑤ |①-②-|
⑥③⑧③ |③-④⑤|
④⑨⑤口 |--⑥-|
口①①⑦ |⑦-⑧⑨|
46
②口口口 |①---|
④口口③ |②---|
④口②⑤ |③--④|
口③①⑤ |--⑤-|
47
⑤④⑤④ |①-②-|
口③③口 |③-④⑤|
口②②口
①口①口

口口口口
口口口⑥
⑦口口⑨ |--⑥-|
⑧口口口 |⑦-⑧⑨|
48
口②口② |①---|
①④口⑤ |②---|
④口⑤口 |③--④|
口③口③ |--⑤-|
49
①③②口 |①-②-|
①⑥②口 |③-④⑤|
⑧④⑨⑤ |--⑥-|
④口⑤⑦ |⑦-⑧⑨|
50
①①口⑤ |--①-|
口⑥②② |②-③④|
口③口④ |--⑤-|
③口④⑦ |⑥-⑦-|
51
口⑤④口 |①-②-|
口口②口 |③-④⑤|
①口口口
口③口口

口口口口
口口口口
⑨⑦⑥⑩ |-⑥⑦-|
口口口⑧ |⑧-⑨⑩|
52
口口⑧口 |-①②-|
①⑤④② |③-④⑤|
口⑦口口 |--⑥-|
③口口⑥ |⑦-⑧-|
53
①口口⑧ |①-②-|
⑨⑤④② |③-④⑤|
口⑦⑥口 |-⑥⑦-|
③口口口 |⑧-⑨-|
54
口⑥口口 |①-②-|
口④⑤⑦ |③-④⑤|
⑧口口① |--⑥-|
口②口③ |⑦-⑧-|
55
⑥口①⑤ |①②③④|
口口口口 |⑤⑥⑦⑧|
口②口⑦
④⑧③口

口⑫口口
⑩口⑨⑬
⑭⑯⑪口 |⑨⑩⑪⑫|
口口口⑮ |⑬⑭⑮⑯|
56
⑥⑩①⑤ |①②③④|
⑭②⑨⑬ |⑤⑥⑦⑧|
⑫⑯⑪⑦ |⑨⑩⑪⑫|
④⑧③⑮ |⑬⑭⑮⑯|
57
⑥口①⑤ |①--②|
⑥②口⑤ |--③-|
④口口③ |-④--|
②④③口 |⑤-⑥-|
58
口口口口 |①--②|
口③②口 |--③-|
口③②口
①口口①

⑤口口④
⑤口口④
⑦口口口 |-④--|
口口口⑥ |⑤-⑥⑦|
59
口②①口 |①--②|
④②③⑤ |--③-|
口④⑦③ |-④--|
口⑥口⑤ |⑤-⑥⑦|
60
①④⑤② |①--②|
⑤口②⑦ |--③-|
口⑥⑦④ |④-⑤-|
③口③⑥ |⑥-⑦-|
61
①口口③ |①-②-|
⑥①③⑥ |③-④-|
②⑦⑦④ |--⑤-|
⑤②④⑤ |⑥-⑦-|
62
①口口③ |①-②-|
⑥①③⑤ |③-④-|
②口口④ |--⑤-|
⑥②④⑤ |⑥---|
63
口口口口 |①---|
口②②口 |----|
口①①口 |②---|
口口口口 |----|
64
⑥①①⑦ |①---|
口②③口 |----|
口④⑤口 |②③④⑤|
口⑧⑨口 |⑥⑦⑧⑨|
65
口口口口 |①---|
②口口② |----|
①口口① |②---|
口口口口 |----|
66
①⑥⑥② |①-②-|
口⑤④口 |③-④⑤|
③口口口 |----|
口口口口 |⑥---|
67
③口⑧⑧ |①-②-|
⑦⑨口⑥ |③-④⑤|
口③④口 |⑥-⑦-|
①⑤口② |⑧-⑨-|
68
③③口⑧ |①-②-|
⑦⑨⑧⑥ |③-④⑤|
①口口② |⑥-⑦-|
口⑤④口 |⑧-⑨-|
69
④②②④ |①---|
③④④③ |②---|
③①①③ |③---|
①②②① |④---|
70
口⑤⑤口 |①②③④|
口⑩⑩口 |⑤---|
⑥①②⑦ |⑥⑦⑧⑨|
⑧③④⑨ |⑩---|
71
⑤⑥⑥④ |①-②-|
②⑨⑧① |③-④⑤|
⑤③③④ |--⑥-|
⑦②①⑦ |⑦-⑧⑨|
72
口③口③ |①---|
④口⑤口 |②---|
②④②⑤ |③--④|
口口①口 |--⑤-|
73
②④②⑤ |①-②-|
⑥③⑧③ |③-④⑤|
④⑨⑤口 |--⑥-|
口①①⑦ |⑦-⑧⑨|
74
②口口口 |①---|
④口口③ |②---|
④口②⑤ |③--④|
口③①⑤ |--⑤-|
75
⑤④⑤④ |①-②-|
口③③口 |③-④⑤|
口②②口
①口①口

口口口口
口口口⑥
⑦口口⑨ |--⑥-|
⑧口口口 |⑦-⑧⑨|
76
口②口② |①---|
①④口⑤ |②---|
④口⑤口 |③--④|
口③口③ |--⑤-|
77
①③②③ |①-②-|
①⑥②口 |③-④⑤|
⑧④⑨⑤ |--⑥-|
④口⑤⑦ |⑦-⑧⑨|
78
①①口⑤ |--①-|
口⑥②② |②-③④|
口③口④ |--⑤-|
③口④⑦ |⑥-⑦-|
79
②⑤②口 |①---|
④口④口 |②---|
①③①③ |③--④|
口⑥口⑥ |⑤-⑥-|
80
⑥口⑦① |①-②-|
⑤口口③ |③-④-|
⑥④⑦④ |⑤-⑥-|
②口②口 |⑦---|
81
口①⑥① |①---|
④②③口 |②---|
⑥⑤口口 |③--④|
③口④② |⑤-⑥-|
82
⑥口口⑦ |①-②-|
口②④② |③-④-|
口⑥⑦① |⑤-⑥-|
④③口⑤ |⑦---|
83
⑤①②⑤ |①---|
②④③① |②---|
①③④② |③--④|
口②①口 |--⑤-|
84
口①②口 |--①-|
②③③① |②---|
①④④② |③---|
口②①口 |④---|
85
④①②③ |①---|
②口口① |②---|
①⑤⑤② |③--④|
③②①④ |--⑤-|
86
⑨①②⑩ |--①-|
①③④② |②-③④|
⑤⑪⑫⑥ |⑤⑥⑦⑧|
口⑦⑧口 |⑨⑩⑪⑫|
87
口口口口 |①---|
口口口口 |----|
口口口口 |----|
①口口① |----|

不確定度: 0

最終更新:2014年07月27日 02:28