やさしくなりたい
斉藤和義

BASIC

Level: 4
BPM: 132
Notes: 218

1
口口口口 |----|
口口口口 |----|
口口口口 |----|
口口口口 |----|
2
口口口口 |①---|
①②③④ |②---|
口口口口 |③---|
口口口口 |④---|
3
口口口口 |①---|
口口口口 |②---|
④③②① |③---|
口口口口 |④---|
4
②②④④ |①---|
①口口③ |②---|
口口口口 |③---|
口口口口 |④---|
5
口口口口 |①---|
②②④④ |②---|
①口口③ |③---|
口口口口 |④---|
6
②②④④ |①---|
口①③口 |②---|
口口口口 |③---|
口口口口 |④---|
7
口口口口 |①---|
②②④④ |②---|
口①③口 |③---|
口口口口 |④---|
8
②②④④ |①---|
①口口③ |②---|
口口口口 |③---|
口口口口 |④---|
9
口口口口 |①---|
②②④④ |②---|
①口口③ |③---|
口口口口 |④---|
10
②②④④ |①---|
口①③口 |②---|
口口口口 |③---|
口口口口 |④---|
11
口口口口 |①---|
①①②② |②---|
口口口口 |③-④-|
③④⑤⑥ |⑤-⑥-|
12
口口口口 |①---|
③①②口 |②-③-|
⑤口④口 |----|
口口口口 |④-⑤-|
13
口口口口 |----|
口口口口 |----|
口口口口 |①-②-|
④③②① |③-④-|
14
口口口口 |①---|
口②①③ |②-③-|
口口口④ |----|
口口口口 |--④-|
15
①②③④ |----|
口口口口 |----|
口口口口 |①-②-|
口口口口 |③-④-|
16
口口口口 |①---|
③①②口 |②-③-|
⑤口④口 |----|
口口口口 |④-⑤-|
17
④③②① |----|
口口口口 |----|
口口口口 |①-②-|
口口口口 |③-④-|
18
口口口口 |----|
③①口② |①-②-|
口口口④ |--③-|
口口口口 |--④-|
19
口①口口 |----|
口②口口 |----|
口③口口 |①-②-|
口④口口 |③-④-|
20
口口口口 |①---|
口②①③ |②-③-|
口④口⑤ |----|
口口口口 |④-⑤-|
21
口①②口 |----|
口口③口 |--①-|
口口④口 |②-③-|
口口⑤口 |④-⑤-|
22
口口口口 |①---|
③①②④ |②-③-|
⑤口口口 |--④-|
口口口口 |--⑤-|
23
口①口口 |----|
口②口口 |----|
口③口口 |①-②-|
口④口口 |③-④-|
24
口口口口 |①---|
④②①③ |②-③-|
口口口⑤ |--④-|
口口口口 |--⑤-|
25
口口①口 |----|
口口②口 |----|
口口③口 |①-②-|
口口④口 |③-④-|
26
口口口口 |①---|
③①②④ |②-③-|
⑤口口口 |--④-|
口口口口 |--⑤-|
27
口口①口 |----|
口口口口 |----|
口口口口 |----|
口口口口 |--①-|
28
口①口口 |①-②-|
⑦③②⑥ |③-④-|
口⑤④口 |⑤---|
口口口口 |⑥-⑦-|
29
口①口口 |----|
口口口口 |----|
口口口口 |----|
口口口口 |--①-|
30
口口①口 |①-②-|
⑥②③⑦ |③-④-|
口④⑤口 |⑤---|
口口口口 |⑥-⑦-|
31
口口口口 |----|
口口口口 |----|
口口口口 |----|
口口口口 |----|
32
口口口口 |①-②-|
口①②口 |③-④-|
口③④口
口口口口

口口口口
口⑦⑥口
口口口口 |⑤---|
口⑤口口 |⑥-⑦-|
33
口口口口 |----|
口口口口 |----|
口口口口 |----|
口口口口 |----|
34
口口口口 |①-②-|
口②①口 |③-④-|
口④③口
口口口口

口口口口
口⑦⑦口
口口口口 |⑤-⑥-|
口⑥⑤口 |--⑦-|
35
口口口口 |----|
口口口口 |----|
口①①口 |①---|
口口口口 |----|
36
口口口口 |①-②-|
⑤⑥口⑦ |③-④-|
④③②① |⑤-⑥-|
口口口口 |--⑦-|
37
口口口口 |----|
口①口口 |----|
口口口口 |----|
口口口口 |--①-|
38
口口口口 |--①-|
口⑦⑥⑤ |②-③-|
①②③④ |④-⑤-|
口口口口 |⑥-⑦-|
39
口口口口 |----|
口口口口 |----|
口口口口 |----|
口口口口 |----|
40
口口口口 |①-②-|
⑤口⑥⑦ |③-④-|
④③②① |⑤---|
口口口口 |⑥-⑦-|
41
口口口口 |----|
①口口口 |----|
口口口口 |----|
口口口口 |--①-|
42
口口口口 |①-②-|
⑦口⑥⑤ |③-④-|
①②③④ |⑤-⑥-|
口口口口 |--⑦-|
43
口①口口 |----|
口口口口 |----|
口口口口 |----|
口口口口 |--①-|
44
口口口口 |--①-|
口②①口 |②-③-|
口口③口
口口口口

口口口口
口⑥口口
口④口口 |④-⑤-|
口口⑤口 |--⑥-|
45
口口①口 |----|
口口口口 |----|
口口口口 |----|
口口口口 |--①-|
46
口口口口 |--①-|
口①②口 |②-③-|
口③④口 |④-⑤-|
⑦⑤⑥口 |⑥-⑦-|
47
口口口口 |----|
口口口口 |----|
口口口口 |----|
口口口口 |----|
48
口①口口 |①-②-|
口②口口 |③-④-|
⑥③⑦口 |⑤---|
口④⑤口 |⑥-⑦-|
49
口①口口 |----|
口口口口 |----|
口口口口 |----|
口口口口 |--①-|
50
口口①口 |①-②-|
口口②口 |③-④-|
口⑦③⑥ |⑤---|
口⑤④口 |⑥-⑦-|


不確定度: 0

タグ:

+ タグ編集
  • タグ:

このサイトはreCAPTCHAによって保護されており、Googleの プライバシーポリシー利用規約 が適用されます。

最終更新:2013年04月07日 23:37