SAVIOR OF SONG (feat. MY FIRST STORY)
ナノ

EXTREME

Level: 9
BPM: 192
Notes: 595

1
口口口口 |----|
口口口口 |----|
口口口口 |----|
口口口口 |----|
2
②⑥口口 |--①-|
⑥口口③ |②-③-|
④口口口 |④---|
口口⑤① |⑤-⑥-|
3
口口口③ |--①-|
口口①口 |--②-|
④②口① |--③-|
②口口口 |--④-|
4
①口⑥口 |--①-|
口口口② |②-③-|
口③口口 |④---|
口⑤口④ |⑤-⑥-|
5
口口口口 |--①-|
口③③口 |--②-|
①口口口 |----|
口口②口 |--③-|
6
①⑦④口 |--①-|
口口口口 |②-③-|
③口口⑥ |④-⑤-|
口⑤口② |⑥-⑦-|
7
③口口③ |①-②-|
口⑤⑤口 |--③-|
口②①口 |--④-|
④口口④ |--⑤-|
8
口口口② |----|
①口⑤口 |①-②-|
口③口口 |③---|
④口口口 |④-⑤-|
9
口①口口 |①---|
②口口③ |②-③-|
口口口口
口口口口

⑩⑩口口
口⑧⑨口
口⑥⑦口 |④⑤⑥⑦|
口④⑤口 |⑧⑨⑩-|
10
口口④③ |--①②|
②⑤口⑤ |③-④-|
④口⑥① |--⑤-|
⑥口口口 |--⑥-|
11
③口口⑤ |--①-|
口口口口 |--②-|
②①口④ |③-④-|
口⑥⑥① |⑤-⑥-|
12
④③口口 |--①②|
口⑥⑤④ |③-④-|
⑤口②⑥ |--⑤-|
①口口口 |--⑥-|
13
口③⑥口 |--①②|
口口口⑧ |③-④⑤|
⑦⑤②口 |⑥-⑦-|
①⑨⑨④ |⑧-⑨-|
14
④口④口 |--①②|
②⑤③⑤ |③-④-|
口口⑥① |--⑤-|
⑥口口口 |--⑥-|
15
③口口⑤ |--①-|
口口口口 |--②-|
②①口④ |③-④-|
口⑥⑥① |⑤-⑥-|
16
④③口口 |--①②|
口⑥⑤④ |③-④-|
⑤口②⑥ |--⑤-|
①口口口 |--⑥-|
17
口⑨⑩口 |--①-|
②⑦⑧② |--②-|
口⑤⑥口 |③④⑤⑥|
①③④① |⑦⑧⑨⑩|
18
①口口② |①---|
口口口口 |----|
口口口口 |----|
口口口口 |②---|
19
口①口口 |----|
口口口口 |----|
口口口口 |①---|
口口口② |②---|
20
口口口② |①---|
口①口口 |--②-|
③口口口 |----|
口口口口 |③---|
21
口口口口 |--①-|
口口口口 |----|
口口口② |----|
口口①口 |②---|
22
口①②口 |①---|
①口口② |--②-|
口③口口 |----|
③口口口 |③---|
23
口②口口 |--①-|
口口③口 |----|
口④①口 |②-③-|
口口口① |④---|
24
口口口口 |----|
①②⑤① |①---|
口④③口 |②-③-|
口口口口 |④-⑤-|
25
①口口② |①---|
口口口口 |②---|
口口口口 |----|
③口口③ |③---|
26
口①①③ |①---|
口口口口 |--②-|
口口口口 |----|
③②②口 |③---|
27
①④口口 |--①-|
口口口口 |----|
口口③口 |②-③-|
口②口① |④---|
28
口口口口 |----|
③口③口 |①---|
口②口② |②---|
①口①口 |③---|
29
口①③① |①---|
口口口③ |②-③-|
②④④口 |----|
口②口口 |④---|
30
口①口① |----|
口口口④ |①---|
③口④口 |②---|
②③②口 |③-④-|
31
①③口③ |①---|
④①④口 |②---|
口②口② |③---|
口口口口 |④---|
32
口口口口 |----|
口③③口 |①---|
口②②口 |②---|
口①①口 |③---|
33
①口口② |①-②-|
口口口④ |--③-|
①口口② |----|
口③③口 |④---|
34
①口②④ |①-②-|
⑤③口口 |③-④-|
①口⑥④ |----|
⑤口口口 |⑤-⑥-|
35
⑤口口⑤ |①-②-|
口③③② |----|
④口口口 |③---|
口①口② |④-⑤-|
36
口口口口 |①-②-|
⑧⑥④② |③-④-|
口口口口 |⑤-⑥-|
⑦⑤③① |⑦-⑧-|
37
⑦③①⑦ |①-②-|
口口⑤口 |③-④-|
口④②口 |⑤-⑥-|
口⑥口口 |⑦---|
38
口③口口 |①-②-|
③口口③ |--③-|
③口口③
①口③②
39
①口①口 |----|
口⑤④⑥ |①-②-|
⑥②⑤口 |③-④-|
口③口③ |⑤-⑥-|
40
⑤①⑦④ |①-②-|
⑦⑥⑥口 |③-④-|
口③口⑦ |⑤-⑥-|
②⑦②口 |--⑦-|
41
⑤①口口 |--①-|
口⑦⑥② |②-③-|
③口口口 |④-⑤-|
口⑦⑥④ |⑥-⑦-|
42
⑦②②⑥ |①-②-|
口口口③ |③-④-|
⑦⑤①⑥ |⑤-⑥-|
④口口④ |⑦---|
43
口②口口 |①-②-|
⑤③③⑤ |③-④-|
⑧⑥④⑦ |⑤-⑥-|
⑧①①⑦ |⑦-⑧-|
44
口②口① |①-②-|
口②③⑤ |③-④-|
口⑥③口 |⑤-⑥-|
⑧④⑤⑦ |⑦-⑧-|
45
口①①口 |①---|
口②③口 |②-③-|
①口口①
口口口口

④⑤⑤④
④口口④
⑤口口⑤ |--④-|
口口口口 |--⑤-|
46
③⑧口③ |--①-|
③①②③ |②---|
⑧⑥⑦口 |③-④⑤|
口④⑤口 |⑥⑦⑧-|
47
口口①口 |----|
②⑤④⑥ |①-②-|
⑥口⑤① |③-④-|
口③口③ |⑤-⑥-|
48
⑤①⑧④ |①-②-|
⑧⑥⑥口 |③-④-|
口③⑦⑧ |⑤-⑥-|
②⑧②口 |⑦-⑧-|
49
⑤①口口 |--①-|
口⑦⑥② |②-③-|
③口口口 |④-⑤-|
口⑦⑥④ |⑥-⑦-|
50
⑦②②⑥ |①-②-|
口口口③ |③-④-|
⑦⑤①⑥ |⑤-⑥-|
④口口④ |⑦---|
51
口②口口 |①-②-|
⑤③③⑤ |③-④-|
⑧⑥④⑦ |⑤-⑥-|
⑧①①⑦ |⑦-⑧-|
52
口②口① |①-②-|
口②③⑤ |③-④-|
口⑥③口 |⑤-⑥-|
⑧④⑤⑦ |⑦-⑧-|
53
口①①口 |①---|
口②③口 |②-③-|
①口口①
口口口口

④⑤⑤④
④口口④
⑤口口⑤ |--④-|
口口口口 |--⑤-|
54
口⑨⑩口 |--①-|
⑦①②⑧ |②---|
口⑤⑥口 |③④⑤⑥|
口③④口 |⑦⑧⑨⑩|
55
⑤口口④ |①-②-|
口③⑧口 |③-④-|
⑥⑧口④ |⑤-⑥-|
①⑥⑦② |⑦-⑧-|
56
口⑥⑤口 |①-②-|
口②口① |③-④-|
口口③口 |⑤-⑥-|
④⑧⑦口 |⑦-⑧-|
57
④口④口 |①-②-|
⑥口⑥③ |③-④-|
②⑧口⑧ |⑤-⑥-|
⑤口⑦① |⑦-⑧-|
58
口口口① |①-②-|
口②口⑦ |③-④-|
⑥口③口 |⑤-⑥-|
口④⑧⑤ |⑦-⑧-|
59
④①①口 |①-②-|
口③③口 |③-④-|
口⑤⑤⑧ |⑤-⑥-|
②⑦⑦⑥ |⑦-⑧-|
60
口①①口 |①-②-|
口③③② |③-④-|
口口口口
④口口口

口⑧口口
口口口口
⑧⑤⑤⑧ |⑤-⑥-|
口⑦⑦⑥ |⑦-⑧-|
61
③口口③ |--①-|
①⑤⑤② |②---|
口③④口 |③---|
⑤口口⑤ |④-⑤-|
62
⑨⑨口口 |--①-|
①⑦⑧② |②---|
口⑤⑥口 |③④⑤⑥|
口③④口 |⑦⑧⑨-|
63
口口④③ |--①②|
②⑤口⑤ |③-④-|
④口⑥① |--⑤-|
⑥口口口 |--⑥-|
64
③口口⑤ |--①-|
口口口口 |--②-|
②①口④ |③-④-|
口⑥⑥① |⑤-⑥-|
65
④③口口 |--①②|
口⑥⑤④ |③-④-|
⑤口②⑥ |--⑤-|
①口口口 |--⑥-|
66
口③⑥口 |--①②|
口口口⑧ |③-④⑤|
⑦⑤②口 |⑥-⑦-|
①⑨⑨④ |⑧-⑨-|
67
④口④口 |--①②|
②⑤③⑤ |③-④-|
口口⑥① |--⑤-|
⑥口口口 |--⑥-|
68
③口口⑤ |--①-|
口口口口 |--②-|
②①口④ |③-④-|
口⑥⑥① |⑤-⑥-|
69
④③口口 |--①②|
口⑥⑤④ |③-④-|
⑤口②⑥ |--⑤-|
①口口口 |--⑥-|
70
口⑨⑩口 |--①-|
②⑦⑧② |--②-|
口⑤⑥口 |③④⑤⑥|
①③④① |⑦⑧⑨⑩|
71
①口口口 |①---|
口口口口 |----|
口口口口 |----|
口口口口 |----|


不確定度: 0

最終更新:2014年03月09日 17:41