From Noon Till Dawn feat.Tabu Zombie & Kunikazu Tanaka
ストレイテナー

BASIC

Level: 3
BPM: 184
Notes: 168

全程BPM在184附近飄忽不定
1
口口口口 |----|
口口口口 |----|
口口口口 |----|
口口口口 |----|
2
口口口口 |①---|
口①①口 |----|
口口口口 |----|
口口口口 |----|
3
口口口口 |①---|
口口口口 |----|
①口口② |②---|
口口口口 |----|
4
口①①口 |①---|
口口口口 |----|
口口口口 |----|
口口口口 |----|
5
口口口口 |①---|
①口口② |----|
口口口口 |②---|
口口口口 |----|
6
口口口口 |①---|
口①①口 |----|
口口口口 |----|
口口口口 |----|
7
口口口口 |①---|
口口口口 |----|
①口口② |②---|
口口口口 |----|
8
口①①口 |①---|
口口口口 |----|
口口口口 |----|
口口口口 |----|
9
口口口口 |①---|
口口口口 |----|
①口口② |②---|
口口口口 |----|
10
口口口口 |①---|
口①①口 |----|
口②②口 |----|
口口口口 |②---|
11
口口口口 |----|
口口口口 |----|
口口口口 |----|
口口口口 |----|
12
口口口口 |①---|
口①①口 |----|
口②②口 |----|
口口口口 |②---|
13
口口口口 |----|
口口口口 |----|
口口口口 |----|
口口口口 |----|
14
口口口口 |①---|
①口口① |----|
②口口② |----|
口口口口 |②---|
15
口口口口 |----|
口口口口 |----|
口口口口 |----|
口口口口 |----|
16
口口口口 |①---|
①口口① |----|
②口口② |----|
口口口口 |②---|
17
口口口口 |----|
口口口口 |----|
口口口口 |----|
口口口口 |----|
18
口④口口 |①---|
口③口口 |②---|
口②口口 |③---|
口①口口 |④---|
19
口口①口 |①---|
口口②口 |②---|
口口③口 |③---|
口口④口 |④---|
20
口口口口 |①---|
②口口② |----|
①口口① |②---|
口口口口 |----|
21
口口口口 |①---|
口②②口 |----|
口①①口 |②---|
口口口口 |----|
22
口④口口 |①---|
口③口口 |②---|
口②口口 |③---|
口①口口 |④---|
23
口口①口 |①---|
口口②口 |②---|
口口③口 |③---|
口口④口 |④---|
24
口口口口 |①---|
②口口② |----|
①口口① |②---|
口口口口 |----|
25
口口口口 |①---|
口②②口 |----|
口①①口 |②---|
口口口口 |----|
26
口口口口 |①---|
口②口口 |----|
口①口口 |②---|
口口口口 |----|
27
口口口口 |①---|
口口②口 |----|
口口①口 |②---|
口口口口 |----|
28
口口口口 |①---|
口口口口 |----|
①口口① |----|
口口口口 |----|
29
口口口口 |----|
口口口口 |----|
口口口口 |----|
口口口口 |----|
30
口口口口 |①---|
口②口口 |----|
口①口口 |②---|
口口口口 |----|
31
口口口口 |①---|
口口②口 |----|
口口①口 |②---|
口口口口 |----|
32
口口口口 |①---|
②口口② |----|
口①①口 |②---|
口口口口 |----|
33
口口口口 |----|
口口口口 |----|
口口口口 |----|
口口口口 |----|
34
口口口口 |①---|
①口②口 |----|
口口口口 |②---|
口口口口 |----|
35
口口口口 |①---|
口口口口 |----|
①口②口 |②---|
口③口口 |③---|
36
口口口口 |①---|
口②口① |----|
口口口口 |②---|
口口口口 |----|
37
口口口口 |①---|
口口口口 |----|
口②口① |②---|
口口③口 |③---|
38
口口口口 |①---|
②口口② |----|
①口口① |②---|
口口口口 |----|
39
口口口口 |①---|
口②②口 |----|
口①①口 |②---|
口口口口 |----|
40
口口口口 |①---|
口口口口 |----|
口①①口 |----|
口口口口 |----|
41
口口口口 |①---|
①口③口 |②---|
口②口④ |③---|
口口口口 |④---|
42
口口②② |①---|
口口口口 |----|
①口口口 |②---|
口口口口 |----|
43
②②口口 |①---|
口口口口 |----|
口口口① |②---|
口口口口 |----|
44
口口口口 |①---|
口口口口 |----|
口①①口 |②---|
口②②口 |----|
45
口口口口 |①---|
①口③口 |②---|
口②口④ |③---|
口口口口 |④---|
46
口口②② |①---|
口口口口 |----|
①口口口 |②---|
口口口口 |----|
47
②②口口 |①---|
口口口口 |----|
口口口① |②---|
口口口口 |----|
48
口口口口 |①---|
口口口口 |----|
口①①口 |②---|
口②②口 |----|
49
口口口口 |①---|
①口③口 |②---|
口②口④ |③---|
口口口口 |④---|
50
口②口② |①---|
口口口口 |----|
①口口口 |②---|
口口口口 |----|
51
②口②口 |①---|
口口口口 |----|
口口口① |②---|
口口口口 |----|
52
口口口口 |①---|
口口口口 |----|
口①①口 |②---|
口②②口 |----|
53
口口口口 |①---|
①口③口 |②---|
口②口④ |③---|
口口口口 |④---|
54
口②口② |①---|
口口口口 |----|
①口口口 |②---|
口口口口 |----|
55
②口②口 |①---|
口口口口 |----|
口口口① |②---|
口口口口 |----|
56
口口口口 |①---|
口口口口 |----|
口①①口 |②---|
口②②口 |----|
57
④口口口 |①---|
③口口口 |②---|
②口口口 |③---|
①口口口 |④---|
58
口口口④ |①---|
口口口③ |②---|
口口口② |③---|
口口口① |④---|
59
口口口口 |①---|
口①①口 |----|
口②②口 |----|
口口口口 |②---|
60
口口口口 |----|
口口口口 |----|
口口口口 |①---|
①口口② |②---|


不確定度: 0

最終更新:2013年12月19日 00:12