From Noon Till Dawn feat.Tabu Zombie & Kunikazu Tanaka
ストレイテナー

ADVANCED

Level: 7
BPM: 184
Notes: 383

全程BPM在184附近飄忽不定
1
口口口口 |----|
口口口口 |----|
口口口口 |----|
口口口口 |----|
2
口口口口 |①---|
①①①① |----|
口口口口 |----|
口口口口 |----|
3
口口口口 |①---|
口口口口 |----|
①口①口 |②---|
口②口② |----|
4
口口口口 |①---|
①①①① |----|
口口口口 |----|
口口口口 |----|
5
口口口口 |①---|
口口口口 |----|
②①②① |②---|
口口口口 |----|
6
口口口口 |①---|
①①①① |----|
口口口口 |----|
口口口口 |----|
7
口口口口 |①---|
口口口口 |----|
①口①口 |②---|
口②口② |----|
8
口口口口 |①---|
①①①① |----|
口口口口 |----|
口口口口 |----|
9
口口口口 |①---|
口口口口 |----|
②①②① |②---|
口口口口 |----|
10
①②③① |①---|
口④⑤口 |②-③-|
⑥口口⑥ |④-⑤-|
口口口口 |⑥---|
11
口口口口 |①-②-|
⑤口口⑥ |③-④-|
⑦①②⑧ |⑤-⑥-|
口③④口 |⑦-⑧-|
12
①②③① |①---|
口④⑤口 |②-③-|
⑥口口⑥ |④-⑤-|
口口口口 |⑥---|
13
口口口口 |①-②-|
⑤口口⑥ |③-④-|
⑦①②⑧ |⑤-⑥-|
口③④口 |⑦-⑧-|
14
①②③① |①---|
口④⑤口 |②-③-|
⑥口口⑥ |④-⑤-|
口口口口 |⑥---|
15
口口口口 |①-②-|
⑤口口⑥ |③-④-|
⑦①②⑧ |⑤-⑥-|
口③④口 |⑦-⑧-|
16
①②③① |①---|
口④⑤口 |②-③-|
⑥口口⑥ |④-⑤-|
口口口口 |⑥---|
17
口口口口 |①-②-|
⑤口口⑥ |③-④-|
⑦①②⑧ |⑤-⑥-|
③口口④ |⑦-⑧-|
18
口③③口 |①---|
口④④口 |②-③-|
口⑤⑤口 |--④-|
②①①口 |--⑤-|
19
口口口口 |----|
③口口③ |①---|
①口口① |②---|
口②②口 |③---|
20
口②②口 |①---|
口②②口 |--②-|
口口口口 |----|
①口口① |----|
21
口④④口 |--①-|
口⑤⑤③ |②-③-|
②口口口 |④---|
口口口① |⑤---|
22
口③③口 |①---|
口④④口 |②-③-|
口⑤⑤口 |--④-|
②①①口 |--⑤-|
23
口口口口 |----|
③口口③ |①---|
①口口① |②---|
口②②口 |③---|
24
口②②口 |①---|
口②②口 |--②-|
口口口口 |----|
①口口① |----|
25
口口口口 |--①-|
口口⑥口 |②-③-|
④⑤口口 |④-⑤-|
①②③口 |⑥---|
26
口口口④ |----|
口③口⑤ |①-②-|
口口①口 |③---|
口②口口 |④-⑤-|
27
口①口口 |①-②-|
口口②口 |--③-|
口口③口 |--④-|
口④⑤口 |--⑤-|
28
口口⑤口 |--①-|
③①④口 |②---|
口口②口 |--③-|
口口口口 |④-⑤-|
29
口口口③ |--①-|
口①口② |②-③-|
④口口口 |--④-|
⑥口口⑤ |⑤-⑥-|
30
口口口④ |----|
口③口⑤ |①-②-|
口口①口 |③---|
口②口口 |④-⑤-|
31
口①口口 |①-②-|
口口②口 |--③-|
口口③口 |--④-|
口④⑤口 |--⑤-|
32
口口②口 |--①-|
口口口口 |②---|
口①⑤口 |--③-|
③口④口 |④-⑤-|
33
口口口口 |--①-|
口④⑤口 |②-③-|
口⑥口③ |--④-|
口①口② |⑤-⑥-|
34
口口⑤口 |----|
④口口口 |①-②-|
口⑥③① |③-④-|
②口口口 |⑤-⑥-|
35
口口口③ |①-②-|
⑥②口口 |③-④-|
④⑦⑦口 |⑤-⑥-|
口口⑤① |⑦---|
36
口口②口 |----|
③①①口 |①---|
口⑤口口 |②-③-|
口口口④ |④-⑤-|
37
④口口① |①-②-|
口②⑤口 |③-④-|
口⑦⑦③ |⑤-⑥-|
⑥口口口 |⑦---|
38
①口口口 |----|
②口口口 |①-②-|
③⑤口口 |③---|
口口④口 |④-⑤-|
39
口②口③ |①-②-|
④口①口 |--③-|
口口口⑤ |④-⑤-|
⑥口口⑦ |⑥-⑦-|
40
③口口口 |①-②-|
口口口② |③---|
①口口口 |----|
口口口口 |----|
41
①③口口 |--①-|
①③⑥口 |②-③-|
⑤⑦②④ |④-⑤-|
⑤⑦口口 |⑥-⑦-|
42
③③口④ |①---|
口口口① |②-③-|
口口口口 |----|
⑤⑤②口 |④-⑤-|
43
②②③口 |----|
口口口口 |①-②-|
口口口口 |----|
④④口① |③-④-|
44
口口口口 |--①-|
口①①口 |②---|
②口口② |----|
口口口口 |----|
45
①③口口 |--①-|
①③⑥口 |②-③-|
⑤⑦②④ |④-⑤-|
⑤⑦口口 |⑥-⑦-|
46
③③口④ |①---|
口口口① |②-③-|
口口口口 |----|
⑤⑤②口 |④-⑤-|
47
④口口⑤ |----|
口②口口 |①-②-|
口⑥③口 |③-④-|
口口口① |⑤-⑥-|
48
口口口口 |①-②-|
口口①口 |③---|
口口口口 |----|
②③③口 |----|
49
⑦③口口 |--①-|
⑦③⑥② |②-③-|
①⑤④口 |④-⑤-|
①⑤口口 |⑥-⑦-|
50
④③④③ |①---|
口口口口 |②-③-|
口口口① |----|
②⑤②⑤ |④-⑤-|
51
口⑤口口 |----|
口②④② |①-②-|
①③①口 |--③-|
口口口口 |④-⑤-|
52
口口口口 |--①-|
②口口口 |②---|
口口口① |----|
口口口口 |----|
53
⑦③口口 |--①-|
⑦③⑥② |②-③-|
①⑤④口 |④-⑤-|
①⑤口口 |⑥-⑦-|
54
④③④③ |①---|
口口口口 |②-③-|
口口口① |----|
②⑤②⑤ |④-⑤-|
55
口⑤口口 |----|
口②④② |①-②-|
①③①口 |--③-|
口口口口 |④-⑤-|
56
口口口口 |--①-|
①口口口 |②---|
口③③② |③---|
口口口口 |----|
57
口口口口 |①-②-|
口口口口 |③-④-|
⑦⑤⑥⑧ |⑤-⑥-|
③①②④ |⑦-⑧-|
58
⑦⑤⑥口 |①-②-|
③①②④ |③-④-|
口口口口 |⑤-⑥-|
口口口口 |⑦---|
59
口口口口 |①---|
口①①口 |②-③-|
口②③口 |④-⑤-|
④⑥⑥⑤ |⑥---|
60
口⑦⑧口 |①-②-|
③⑤⑥④ |③-④-|
①口口② |⑤-⑥-|
口口口口 |⑦-⑧-|


不確定度: 0

最終更新:2013年12月19日 00:12