凛として咲く花の如く ~ひなビタ♪ edition~
日向美ビタースイーツ♪

BASIC

Level: 5
BPM: 163
Notes: 443

1
口口口口 |----|
口口口口 |----|
口口口口 |----|
口口口口 |----|
2
口①口口 |①---|
口口②口 |②---|
口③口口 |③---|
口口④口 |④---|
3
口④④口 |①---|
口③③口 |②---|
口口②口 |③---|
口①口口 |④---|
4
口口口口 |----|
口口口口 |----|
口口口口 |----|
口口口口 |----|
5
②②①① |①---|
④④③③ |②---|
口口口口 |③---|
口口口口 |④---|
6
②②①① |①---|
口③③口 |②---|
口④④口 |③-④-|
口⑤⑤口 |⑤---|
7
②②①① |①---|
④④③③ |②---|
口口口口 |③---|
口口口口 |④---|
8
口口口口 |①---|
口⑤⑤口 |②---|
①④④① |③-④-|
②③③② |⑤---|
9
②②①① |①---|
④④③③ |②---|
口口口口 |③---|
口口口口 |④---|
10
②②①① |①---|
口③③口 |②---|
口④④口 |③-④-|
口⑤⑤口 |⑤---|
11
②②①① |①---|
④④③③ |②---|
口口口口 |③---|
口口口口 |④---|
12
口口口口 |①---|
口口口口 |②---|
口①②口 |③---|
③②①③ |----|
13
口②口口 |①---|
口口口口 |----|
口①口口 |②---|
口口口口 |----|
14
口口②口 |①---|
口口口口 |----|
口口①口 |②---|
口口口口 |----|
15
②口口口 |①---|
口口口口 |----|
①口口口 |②---|
口口口口 |----|
16
口口口② |①---|
口口口口 |----|
口口口① |②---|
口口口口 |----|
17
口口口口 |①---|
口②口口 |----|
口口口口 |②---|
口①①口 |----|
18
口口口口 |①---|
口口②口 |----|
口口口口 |②---|
口①①口 |----|
19
口口口口 |①---|
②口口② |----|
①口口① |②---|
口口口口 |----|
20
口口口口 |①---|
口口口口 |----|
②口口② |②---|
①口口① |----|
21
①①口口 |①---|
口②口口 |②---|
口③口口 |③---|
口口口口 |----|
22
口口口口 |①---|
口口③口 |②---|
口口②口 |③---|
口口①① |----|
23
口口口口 |①---|
口口口口 |②---|
①②④③ |③---|
口口口口 |④---|
24
口口口口 |①---|
②③③① |②---|
口口口口 |③---|
口口口口 |----|
25
口口①口 |①---|
口口口② |②---|
口口③口 |③---|
口口口口 |----|
26
口口口口 |①---|
口③口口 |②---|
②口口口 |③---|
口①口口 |----|
27
口①口口 |①---|
口口②口 |②---|
⑤③口⑤ |③---|
④口口④ |④-⑤-|
28
口口口口 |①---|
①②③① |----|
口口口口 |②---|
口口口口 |③---|
29
①③③① |①---|
④口口④ |②---|
口②②口 |③---|
口口口口 |④---|
30
口口④口 |①---|
口①口口 |②---|
口口②口 |③---|
口③③口 |④---|
31
口口口口 |①---|
②口口④ |②---|
口①③口 |③---|
口口口口 |④---|
32
口④④口 |①---|
口③③口 |②---|
口②②口 |③---|
口①①口 |④---|
33
口口口口 |①---|
口②④口 |②---|
口口口口 |③---|
口①③口 |④---|
34
口口②口 |①---|
口口口口 |②---|
口①口口
口口口口

口口口口
口③③口
口④④口 |③---|
口口口口 |④---|
35
口口口口 |①---|
口口口口 |②---|
②口口④ |③---|
口①③口 |④---|
36
口口口口 |①---|
口③④口 |②---|
口①②口 |③---|
口口口口 |④---|
37
口口口口 |①---|
口②④口 |②---|
①①③③ |③---|
口口口口 |④---|
38
口①①口 |①---|
口口口口 |----|
口口口口 |----|
口口口口 |----|
39
口口口口 |①---|
①口口口 |----|
口①口口 |----|
口口口口 |----|
40
口口口口 |①---|
口口口① |----|
口口①口 |----|
口口口口 |----|
41
口口口口 |①---|
口口口口 |----|
口①①口 |----|
口口口口 |----|
42
②②④④ |①---|
①①③③ |②---|
口口口口 |③---|
口口口口 |④---|
43
口口口口 |①---|
口⑤⑤口 |②---|
①④④① |③-④-|
②③③② |⑤---|
44
口口口口 |----|
口口口口 |----|
口口口口 |----|
口口口口 |----|
45
②②①① |①---|
④④③③ |②---|
口口口口 |③---|
口口口口 |④---|
46
②②①① |①---|
口③③口 |②---|
口④④口 |③-④-|
口⑤⑤口 |⑤---|
47
②②①① |①---|
④④③③ |②---|
口口口口 |③---|
口口口口 |④---|
48
口口口口 |①---|
口口口口 |②---|
①②②① |③---|
口③③口 |----|
49
②②①① |①---|
④④③③ |②---|
口口口口 |③---|
口口口口 |④---|
50
②②①① |①---|
口③③口 |②---|
口④④口 |③-④-|
口⑤⑤口 |⑤---|
51
②②①① |①---|
④④③③ |②---|
口口口口 |③---|
口口口口 |④---|
52
口口口口 |①---|
口口口口 |②---|
口①②口 |③---|
③②①③ |----|
53
口口口口 |①---|
口①口口 |----|
口口①口 |----|
口口口口 |----|
54
口口口口 |①---|
口口①口 |----|
口①口口 |----|
口口口口 |----|
55
口口口口 |①---|
口②②口 |----|
口①①口 |②---|
口口口口 |----|
56
口口口口 |①---|
口口口口 |----|
口口口口 |----|
①口口① |----|
57
①口口口 |①---|
口②口口 |②---|
口口③口 |③---|
口口口④ |④---|
58
口口口① |①---|
口口②口 |②---|
口③口口 |③---|
④口口口 |④---|
59
①口口口 |①---|
口②口口 |②---|
口口③口 |③---|
口口口④ |④---|
60
口口口口 |①---|
口③口口 |②---|
口口②口 |③---|
①口口口 |----|
61
①①口口 |①---|
口②口口 |②---|
口③口口 |③---|
口口口口 |----|
62
口口口口 |①---|
口口③口 |②---|
口口②口 |③---|
口口①① |----|
63
口口口口 |①---|
口口口口 |②---|
①②④③ |③---|
口口口口 |④---|
64
口口口口 |①---|
②③③① |②---|
口口口口 |③---|
口口口口 |----|
65
口口①口 |①---|
口口口② |②---|
口口③口 |③---|
口口口口 |----|
66
口口口口 |①---|
口③口口 |②---|
②口口口 |③---|
口①口口 |----|
67
口①口口 |①---|
口口②口 |②---|
⑤③口⑤ |③---|
④口口④ |④-⑤-|
68
口口口口 |①---|
①②③① |----|
口口口口 |②---|
口口口口 |③---|
69
①③③① |①---|
④口口④ |②---|
口②②口 |③---|
口口口口 |④---|
70
口口④口 |①---|
口①口口 |②---|
口口②口 |③---|
口③③口 |④---|
71
口口口口 |①---|
②口口④ |②---|
口①③口 |③---|
口口口口 |④---|
72
口④④口 |①---|
口③③口 |②---|
口②②口 |③---|
口①①口 |④---|
73
口口口口 |①---|
口②④口 |②---|
口口口口 |③---|
口①③口 |④---|
74
口口②口 |①---|
口口口口 |②---|
口①口口
口口口口

口口口口
口③③口
口④④口 |③---|
口口口口 |④---|
75
口口口口 |①---|
口口口口 |②---|
②口口④ |③---|
口①③口 |④---|
76
口④④口 |①---|
口③③口 |②---|
口①②口 |③---|
口口口口 |④---|
77
②④④② |①---|
口口口口 |②---|
①③③① |③---|
口口口口 |④---|
78
口④④口 |①---|
②口口② |②---|
口③③口 |③---|
口①①口 |④---|
79
②口口④ |①---|
口口口口 |②---|
①口口③ |③---|
口口口口 |④---|
80
口③③口 |①---|
②④④② |②---|
口①①口 |③---|
口口口口 |④---|
81
②口口② |①---|
④口口④ |②---|
口③③口 |③---|
①口口① |④---|
82
口②②口 |①---|
③口口③ |②---|
口口口口 |③---|
④①①④ |④---|
83
②②④④ |①---|
口口口口 |②---|
口①③口 |③---|
口口口口 |④---|
84
口口口口 |①---|
①①②② |②---|
③③④④ |③---|
口口口口 |④---|
85
口口口口 |①---|
①①②② |②---|
③③④④ |③---|
口口口口 |④---|
86
①口口① |①---|
口口口口 |----|
口口口口 |----|
口口口口 |----|


不確定度: 0

最終更新:2013年12月15日 00:50