ちくわパフェだよ☆CKP
日向美ビタースイーツ♪

BASIC

Level: 4
BPM: 205
Notes: 291

1
口口口口 |----|
口口口口 |----|
口口口口 |----|
口口口口 |----|
2
口口口口 |①---|
口口口口 |----|
口口口口 |----|
口①①口
3
口口口口 |①---|
口口口口 |----|
口①①口 |----|
口口口口
4
口口口口 |①---|
口①①口 |----|
口口口口 |----|
口口口口
5
①口口① |①---|
口口口口 |----|
口口口口 |----|
口口口口
6
口口口口 |①---|
口口口口 |----|
口口口口 |----|
①口口①
7
口口口口 |①---|
口口口口 |----|
①口口① |----|
口口口口
8
口口口口 |①---|
①口口① |----|
口口口口 |----|
口口口口
9
口①①口 |①---|
口口口口 |----|
口口口口 |----|
口口口口
10
口口口口 |①---|
口口口口 |----|
口口口口 |----|
口①口口
11
口口口口 |①---|
口口口口 |----|
口口口口 |----|
口口①口
12
口③③口 |①---|
口②②口 |②---|
口①①口 |③---|
口口口口
13
③口口③ |①---|
②口口② |②---|
①口口① |③---|
口口口口
14
口口口口 |①---|
口口口口 |----|
口口口口 |----|
口口①口
15
口口口口 |①---|
口口口口 |----|
口口口口 |----|
口①口口
16
口口口口 |①---|
口①①口 |----|
口口口口 |----|
口口口口
17
①口口① |①---|
口口口口 |----|
口口口口 |----|
口口口口
18
③口口口 |①---|
口①②口 |②---|
口口口口 |--③-|
口口口口 |----|
19
口口口① |--①-|
口口②口 |----|
口口口口 |----|
口口口口 |②---|
20
口口口口 |①---|
口口口口 |②---|
口①②口 |--③-|
③口口口 |----|
21
口口口口 |--①-|
口口口口 |----|
口口口口 |----|
口口口① |----|
22
口口口口 |①---|
口口口口 |②---|
口③④口 |③---|
口①②口 |④---|
23
口③④口 |①---|
口①②口 |②---|
口口口口 |③---|
口口口口 |④---|
24
口口口③ |①---|
①②口口 |----|
口口口口 |②---|
口口口口 |--③-|
25
口口口口 |----|
口口口口 |----|
口口口口 |----|
口口口口 |----|
26
口①①口 |①---|
口口口口 |----|
口口口口 |----|
口口口口 |----|
27
口口口口 |①---|
①口口② |----|
口口口口 |②---|
口口口口 |----|
28
口口口口 |①---|
口口口口 |----|
①口口② |②---|
口口口口 |----|
29
口口口口 |①---|
口口口口 |----|
口口口口 |----|
口①①口 |----|
30
口口口口 |①---|
口口口口 |----|
口②口口 |②---|
①口口口 |----|
31
口口口口 |①---|
口口①口 |----|
口口口口 |----|
口口口口 |----|
32
口口口口 |①---|
口口口口 |----|
口口②口 |②---|
口口口① |----|
33
口口口口 |①---|
口①口口 |----|
口口口口 |----|
口口口口 |----|
34
口①①口 |①---|
口口口口 |----|
口口口口 |----|
口口口口 |----|
35
口口口口 |①---|
①口口② |----|
口口口口 |②---|
口口口口 |----|
36
口口口口 |①---|
口口口口 |----|
①口口② |②---|
口口口口 |----|
37
口口口口 |①---|
口口口口 |----|
口口口口 |----|
口①①口 |----|
38
口口口口 |①---|
口口口口 |----|
口①②口 |②---|
口口口口 |----|
39
口口口口 |①---|
口①②口 |----|
口口口口 |②---|
口口口口 |----|
40
②①口② |①---|
口口口口 |----|
口口口口 |----|
口口口口 |--②-|
41
口口口口 |----|
口口口口 |----|
口口口口
口口口口
42
口①①口 |①---|
口口口口 |----|
口口口口 |----|
口口口口 |----|
43
口口口口 |①---|
①口口① |----|
②口口② |②---|
口口口口 |----|
44
口口口口 |①---|
口口口口 |----|
口口口口 |②---|
①②②① |----|
45
口口口口 |----|
②口口② |①---|
①口口① |----|
口口口口 |②---|
46
口口口口 |----|
口口口口 |----|
口口口口 |----|
口①①口 |①---|
47
口口口口 |----|
口②②口 |①---|
口①①口 |----|
口口口口 |②---|
48
口①①口 |----|
口口口口 |①---|
口口口口 |----|
口口口口 |----|
49
①口口① |①---|
口口口口 |----|
口口口口 |----|
口口口口 |----|
50
口口口口 |----|
口口口口 |----|
口口口口 |----|
口口口口 |----|
51
口①②口 |①---|
口③口口 |②---|
口口口口 |③---|
口口口口
52
口口口口 |①---|
口口口口 |②---|
②口口②
①口口①
53
口口口口 |①---|
口口口口 |②---|
口③口口 |③---|
口①②口
54
①口口① |①---|
②口口② |②---|
口口口口
口口口口
55
口①②口 |①---|
口③口口 |②---|
口口口口 |③---|
口口口口
56
口口口口 |①---|
口口口口 |②---|
②口口②
①口口①
57
口口口口 |①---|
口口口口 |②---|
口口③口 |③---|
口②①口
58
①口口① |①---|
②口口② |②---|
口口口口
口口口口
59
口①口口 |①---|
口口口口 |----|
口口口口 |----|
口口口口
60
口口①口 |①---|
口口口口 |----|
口口口口 |----|
口口口口 |--|
61
口口口口 |①---|
①口口口 |----|
口口口口 |----|
口口口口 |----|
62
口口口口 |①---|
口口口① |----|
口口口口
口口口口
63
口口口口 |----|
口口口口 |----|
口口口口 |--|
口口口口
64
口口口口 |①---|
口口口口 |----|
口①口口
口口口口
65
口口口口 |----|
口口口口 |----|
口口口口 |----|
口口口口
66
口口口口 |①---|
口口口口 |----|
口②②口 |②---|
口口①口 |----|
67
②②②② |①---|
①①①口 |----|
口口口口 |②---|
③③③③ |--③-|
68
口口口口 |----|
②②②② |①---|
①①①① |--②-|
口口口口 |----|
69
①①①① |①---|
④④④④ |②---|
③③③③ |③---|
②②②② |④---|
70
①①①① |①---|
口口口口 |----|
口口口口 |----|
口口口口 |----|
71
口口口口 |----|
口口口口 |----|
口口口口 |----|
口口口口 |----|
72
口口口口 |----|
口口口口 |----|
口口口口
口口口口
73
口②①口 |①---|
口口口口 |--②-|
口口口口 |----|
口口口口 |----|
74
口口口口 |①---|
口②①口 |--②-|
口口口口 |----|
口口口口 |----|
75
口口口口 |①---|
口口口口 |②---|
口口口口 |③---|
①②③④ |④---|
76
口口口口 |①---|
口②③口 |----|
口①①口 |②---|
口口口口 |③---|
77
①②③④ |①---|
口口口口 |②---|
口口口口 |③---|
口口口口 |④---|
78
口口口口 |①---|
口①②口 |②---|
口口口口 |----|
口口口口 |----|
79
口口口口 |①---|
口口口口 |②---|
①口口② |③---|
③口口④ |④---|
80
口口口口 |----|
口口口口 |----|
口①口口 |①---|
口口口口 |----|
81
口②①口 |①---|
口口口口 |----|
口口口口 |②---|
口口口口 |----|
82
口口口口 |①---|
口②口口 |----|
口口①口 |②---|
口口口口 |----|
83
口口口口 |①---|
口口口口 |②---|
①②③④ |③---|
口口口口 |④---|
84
口口口口 |----|
口①②口 |----|
口口口口 |①---|
口口口口 |②---|
85
①②③④ |①---|
口口口口 |②---|
口口口口 |③---|
口口口口 |④---|
86
口口口口 |①---|
口①②口 |②---|
口口口口 |----|
口口口口 |----|
87
口口口口 |①---|
口口口口 |②---|
①口口② |③---|
③口口④ |④---|
88
口口口口 |----|
口口口口 |----|
口①口口 |①---|
口口口口 |----|
89
口②①口 |①---|
口口口口 |----|
口口口口 |②---|
口口口口 |----|
90
口口口口 |①---|
口②口口 |----|
口口①口 |②---|
口口口口 |----|
91
①口口② |----|
口口口口 |----|
口口口口 |①---|
口口口口 |②---|
92
口口口口 |①---|
①口口② |②---|
③口口④ |③---|
口口口口 |④---|
93
口口口口 |----|
口口口口 |----|
口口口口 |①---|
口①②口 |②---|
94
口口口口 |①---|
口③④口 |②---|
口①②口 |③---|
口口口口 |④---|
95
口①口口 |①---|
口口口口 |----|
口口口口 |----|
口口口口 |----|
96
口口口口 |----|
口口口口 |----|
口口口口 |----|
口口口口 |----|
97
口口口口 |----|
口口口口 |----|
口口口口 |----|
口口口口 |----|
98
口口口口 |①---|
口①①口 |----|
口①①口 |----|
口口口口 |----|
99
口口口口 |①---|
③口口口 |②---|
②口口口 |③---|
①口口口
100
口口口口 |①---|
口口口③ |②---|
口口口② |③---|
口口口①
101
口③③口 |①---|
口②②口 |②---|
口①①口 |③---|
口口口口
102
③口口③ |①---|
②口口② |②---|
①口口① |③---|
口口口口
103
口口口口 |①---|
口口③口 |②---|
口口②口 |③---|
口口①口
104
口口口口 |①---|
口③口口 |②---|
口②口口 |③---|
口①口口
105
口口口口 |①---|
口口口口 |----|
①口口① |----|
口口口口
106
①口口① |①---|
口口口口 |----|
口口口口 |----|
口口口口
107
口口口口 |①---|
口①②口 |----|
口口口口 |②---|
口口口口 |----|
108
④口口④ |①---|
③口口③ |--②-|
②①①② |--③-|
口口口口 |--④-|
109
口①①口 |----|
口①①口 |--①-|
口口口口 |----|
口口口口 |----|


不確定度: 0

最終更新:2013年12月15日 00:48