ちくわパフェだよ☆CKP
日向美ビタースイーツ♪
ADVANCED
Level: 7
BPM: 205
Notes: 563
1
口口口口 |----|
口口口口 |----|
口口口口 |----|
口口口口 |----|
2
③口③口 |①---|
口口口口 |②---|
口口②口 |③---|
口①口口
3
口③口③ |①---|
口口口口 |②---|
口②口口 |③---|
口口①口
4
口口口口 |①-②-|
口③②① |③---|
口口口口 |④---|
④口口口
5
口③②① |①-②-|
口⑤④口 |③---|
口口口口 |④-⑤-|
口口口口
6
口③口③ |①---|
口口口口 |②---|
口②口口 |③---|
口口①口
7
③口③口 |①---|
口口口口 |②---|
口口②口 |③---|
口①口口
8
口口口口 |①-②-|
口③②① |③---|
口口口口 |④-⑤-|
口⑤④口
9
口③②① |①-②-|
口⑤④口 |③-④-|
口口口口 |⑤---|
口口口口
10
③口③口 |①---|
口口口口 |②---|
口②口② |③---|
①口①口
11
口③口③ |①---|
口口口口 |②---|
②口②口 |③---|
口①口①
12
口口②口 |①---|
口③口① |②---|
口口口口 |③---|
口口口口
13
口口口口 |①---|
口口口口 |②---|
①口③口 |③---|
口②口口
14
③口③口 |①---|
口口口口 |②---|
口②口② |③---|
①口①口
15
口③口③ |①---|
口口口口 |②---|
②口②口 |③---|
口①口①
16
③口③口 |①---|
口口口口 |②---|
口②口② |③---|
①口①口
17
口口口③ |①-②-|
口②①口 |③---|
口口口口 |----|
口口口口
18
⑤口口⑤ |①-②-|
口口口口 |③-④-|
⑥①②⑥ |--⑤-|
口③④口 |--⑥-|
19
口①①口 |--①-|
口③④⑤ |--②-|
口②②口 |--③-|
口口口口 |④-⑤-|
20
口⑤⑤口 |①-②-|
口口口口 |③-④-|
③⑥⑥④ |--⑤-|
口①②口 |--⑥-|
21
①口口① |--①-|
口③④⑤ |--②-|
口口口口 |--③-|
②口口② |④-⑤-|
22
口③④口 |①-②-|
口口口口 |③-④-|
⑦①②口 |--⑤-|
口⑤⑥口 |⑥-⑦-|
23
口口口口 |--①-|
口口①口 |②-③-|
口②③口 |④-⑤-|
④⑥⑦⑤ |⑥-⑦-|
24
口口口口 |①---|
①①③③ |----|
口②②口 |②---|
口口口口 |--③-|
25
口口口口 |----|
口口口口 |----|
口口口口 |----|
口口口口 |----|
26
②口口① |①-②-|
口④③口 |③-④-|
口⑥⑤口 |⑤-⑥-|
口⑧⑦口 |⑦-⑧-|
27
口⑤口① |①-②-|
②⑦⑥③ |③-④-|
④口⑧口 |⑤-⑥-|
口口口口 |⑦-⑧-|
28
②口口① |①-②-|
④口口③ |③-④-|
⑥口口⑤ |⑤-⑥-|
⑧口口⑦ |⑦-⑧-|
29
③口口③ |①-②-|
口①①④ |--③-|
口②②④ |----|
口口口口 |④---|
30
口③②口 |①---|
①口口口 |----|
①口口口 |②---|
口②③口 |--③-|
31
口口口口 |----|
口口口口 |----|
口口②口 |----|
口①口口 |①-②-|
32
①口①② |①---|
口口口口 |----|
口③口口 |②---|
口口口口 |--③-|
33
口口口口 |----|
口①口口 |①-②-|
口口②口 |③---|
③口口口 |----|
34
①口口② |①-②-|
口③④口 |③-④-|
口⑤⑥口 |⑤-⑥-|
口⑦⑧口 |⑦-⑧-|
35
口①⑤口 |①-②-|
口③⑦② |③-④-|
⑥口口④ |⑤-⑥-|
⑧口口口 |⑦-⑧-|
36
②口口① |①-②-|
④口⑦③ |③-④-|
口⑥⑤口 |⑤-⑥-|
口口口口 |⑦---|
37
④③③④ |①-②-|
口口口口 |--③-|
①口口① |----|
②口口② |④---|
38
口口口口 |①---|
口③②口 |----|
口①①口 |②---|
口②③口 |--③-|
39
口口②① |----|
口口口口 |----|
口口②① |①---|
口口口口 |②---|
40
口①口口 |①---|
口口④口 |----|
③①口口 |--②-|
口口②口 |③-④-|
41
口口口口 |----|
口口口口 |----|
口口口口
口口口口
42
①口口① |①---|
口②口口 |②---|
口口③口 |③---|
口④口口 |④---|
43
③①①③ |①---|
口口②口 |②---|
口④口口 |③---|
口口口口 |④---|
44
④①①④ |①---|
③口口③ |②---|
口口②口 |③---|
口口口口 |④---|
45
④②②④ |①---|
口口口口 |②---|
口①③口 |③---|
口口口口 |④---|
46
④口口④ |①---|
口口①口 |②---|
口②口口 |③---|
口口③口 |④---|
47
④②②④ |①---|
口口口口 |②---|
口③①口 |③---|
口口口口 |④---|
48
口③③口 |①---|
口②②口 |②---|
口④①口 |③---|
口口口口 |④---|
49
①口口① |①---|
口口口口 |②---|
口口②口 |----|
口口口口 |----|
50
口口口口 |----|
口口口口 |----|
口口口口 |----|
口口口口 |----|
51
口口口口 |①-②-|
口口口口 |③-④-|
⑥⑤④口 |⑤-⑥-|
口①②③
52
口③①口 |①-②-|
口④②口 |③-④-|
口口口口
口口口口
53
口口口口 |①-②-|
口口口口 |③-④-|
口④⑤⑥ |⑤-⑥-|
③②①口
54
口①③口 |①-②-|
口②④口 |③-④-|
口口口口
口口口口
55
口口口口 |①-②-|
口口口口 |③-④-|
⑥⑤④口 |⑤-⑥-|
口①②③
56
③口口① |①-②-|
④口口② |③-④-|
口口口口
口口口口
57
口口口口 |①-②-|
口口口口 |③-④-|
口④⑤⑥ |⑤-⑥-|
③②①口
58
①口口③ |①-②-|
②口口④ |③-④-|
口口口口
口口口口
59
口③④口 |①-②-|
口①②口 |③-④-|
口口口口 |----|
口口口口
60
口口口口 |①-②-|
⑤口口口 |③-④-|
③口口④ |⑤---|
①口口② |--|
61
口①②口 |①-②-|
口③④口 |③-④-|
口⑤⑥口 |⑤-⑥-|
口口口口 |----|
62
口口口口 |①-②-|
口口口口 |③-④-|
③口口④
①口口②
63
③口口口 |①-②-|
①口口② |③---|
口口口口 |--|
口口口口
64
口①②口 |①-②-|
口③④口 |③-④-|
口口口口
口口口口
65
口口口口 |①-②-|
口口口口 |③-④-|
口①②口 |----|
口③④口
66
①口口① |①---|
②口口② |----|
口口口口 |②---|
口口口口 |----|
67
口口口口 |①---|
口③③口 |----|
①口口① |②---|
②口口② |--③-|
68
口②②口 |----|
口口口口 |①---|
口①①口 |--②-|
口口口口 |----|
69
④口口④ |①---|
②口口② |②---|
③口口③ |③---|
口①①口 |④---|
70
口口口口 |①---|
口②②口 |②---|
口②②口 |----|
①口口① |----|
71
口口口口 |----|
口口口口 |----|
口口口口 |----|
口口口口 |----|
72
口口口口 |----|
口口口口 |----|
口口口口
口口口口
73
②口口① |①---|
②口口① |--②-|
口口口口 |----|
口口口口 |----|
74
口口口口 |①---|
口口口口 |--②-|
②口口① |----|
②口口① |----|
75
口④④口 |①---|
口③③口 |②---|
口②②口 |③---|
口①①口 |④---|
76
②口口① |①-②-|
②④⑤① |③---|
口⑥⑦口 |④-⑤-|
口③③口 |⑥-⑦-|
77
口③②口 |①---|
口口口④ |②-③-|
①⑤口口 |--④-|
①口⑥口 |⑤-⑥-|
78
口⑤④③ |--①-|
口①②口 |②---|
口口口口 |--③-|
口口口口 |④-⑤-|
79
口口口口 |①---|
②②④④ |②---|
口口口口 |③---|
③③①① |④---|
80
口口口口 |----|
口口口口 |----|
①②③④ |①-②-|
口口口口 |③-④-|
81
①③口② |①---|
口口④口 |--②-|
口⑤口口 |--③-|
口口口口 |④-⑤-|
82
口口口口 |①---|
②口口③ |②---|
②④④③ |③---|
口口①口 |--④-|
83
口①②④ |--①-|
⑤③口口 |②-③-|
口口口⑥ |④-⑤-|
⑦口口口 |⑥-⑦-|
84
口口口口 |----|
口①②口 |----|
口③④口 |①-②-|
口口口口 |③-④-|
85
口③②口 |①---|
口口口④ |②-③-|
①⑤口口 |--④-|
①口⑥口 |⑤-⑥-|
86
口⑤④③ |--①-|
口①②口 |②---|
口口口口 |--③-|
口口口口 |④-⑤-|
87
口口口口 |①---|
②②④④ |②---|
口口口口 |③---|
③③①① |④---|
88
口口口口 |----|
口口口口 |----|
①②③④ |①-②-|
口口口口 |③-④-|
89
①③口② |①---|
口口④口 |--②-|
口⑤口口 |--③-|
口口口口 |④-⑤-|
90
口口口口 |①---|
②口口③ |②---|
②口口③ |③---|
口口①口 |----|
91
口口口口 |----|
口②①口 |----|
口①②口 |①---|
口口口口 |②---|
92
②口口① |①---|
口口④口 |②-③-|
③⑤口口 |--④-|
①口口② |⑤---|
93
口口口口 |----|
口口口口 |----|
②口口② |①---|
口①①口 |②---|
94
②④④② |①---|
①口口① |②---|
口③③口 |③---|
口口口口 |④---|
95
口口口口 |①---|
口②③④ |②---|
口口口口 |③---|
口①①口 |④---|
96
口口口口 |①---|
口口口口 |②---|
④③②① |③---|
口口口口 |④---|
97
口口口口 |①---|
口口口口 |②-③-|
口口口口 |----|
①②③④ |④---|
98
口口口口 |①---|
口①①口 |----|
口①①口 |----|
口口口口 |----|
99
③口③口 |①---|
口口口口 |②---|
口②口② |③---|
①口①口
100
口③口③ |①---|
口口口口 |②---|
②口②口 |③---|
口①口①
101
口口②口 |①---|
口③口① |②---|
口口口口 |③---|
口口口口
102
口口口口 |①---|
口口口口 |②---|
①口③口 |③---|
口②口口
103
③口③口 |①---|
口口口口 |②---|
口②口② |③---|
①口①口
104
口③口③ |①---|
口口口口 |②---|
②口②口 |③---|
口①口①
105
③口③口 |①---|
口口口口 |②---|
口②口② |③---|
①口①口
106
口口口③ |①-②-|
口②①口 |③---|
口口口口 |----|
口口口口
107
口口口口 |①---|
口口口口 |----|
口①②口 |②---|
口口口口 |----|
108
⑤①①⑤ |①-②-|
口②②口 |--③-|
④口口④ |--④-|
③口口③ |--⑤-|
109
口口口口 |--①-|
③口口③ |②-③-|
口①②口 |----|
口③③口 |----|
不確定度: 0