カタルシスの月
日向美ビタースイーツ♪

BASIC

Level: 4
BPM: 200
Notes: 318

1
口口口口 |----|
口口口口 |----|
口口口口 |----|
口口口口 |----|
2
口①口口 |①---|
口②口口 |②---|
口③口口 |③---|
口④④口 |④---|
3
口②②口 |----|
口口①口 |----|
口口口口 |①---|
口口口口 |②---|
4
口口口口 |----|
口口口口 |----|
口①口口 |①---|
口②②口 |②---|
5
口口口口 |----|
口口②① |①---|
③③口口 |②---|
口口口口 |③---|
6
口口口口 |----|
口①口口 |----|
口口②② |①---|
口口口口 |②---|
7
口口口口 |----|
口口①口 |----|
②②口口 |①---|
口口口口 |②---|
8
口口口口 |----|
口①口口 |----|
口口②② |①---|
口口口口 |②---|
9
口口口口 |----|
①口口① |①---|
口口口口 |----|
口口口口 |----|
10
口①口口 |①---|
口②口口 |②---|
口③口口 |③---|
口④④口 |④---|
11
口②②口 |----|
口口①口 |----|
口口口口 |①---|
口口口口 |②---|
12
口口口口 |----|
口口口口 |----|
口①口口 |①---|
口②②口 |②---|
13
口口口口 |----|
口口②① |①---|
③③口口 |②---|
口口口口 |③---|
14
口口口口 |----|
口①口口 |----|
口口②② |①---|
口口口口 |②---|
15
口口口口 |----|
口口①口 |----|
②②口口 |①---|
口口口口 |②---|
16
口口口口 |----|
口口口口 |----|
口口口口 |----|
口口口口 |----|
17
口口口口 |①---|
口①①口 |----|
口①①口 |②---|
口②②口 |----|
18
口口口口 |①---|
口口口口 |----|
口①①口 |----|
口口口口 |----|
19
口口口口 |----|
口①①口 |----|
口口口口 |①---|
口口口口 |----|
20
口①①口 |①---|
口口②口 |----|
口口口口 |②---|
口口口口 |----|
21
口口口口 |①---|
口①口口 |----|
口口②口 |②---|
口口口口 |----|
22
口口口口 |①---|
口口口② |----|
口①口口 |②---|
口口口口 |----|
23
口口口口 |①---|
口②①口 |----|
口口口口 |②---|
口口口口 |----|
24
口口口口 |----|
口①①口 |----|
口口口口 |①---|
口口口口 |----|
25
口口口口 |①---|
口口口口 |----|
口①①口 |②---|
口②②口 |----|
26
口口口口 |①---|
口口③口 |②---|
②④口口 |③---|
①口口口 |④---|
27
口口口口 |①---|
口③口口 |②---|
口口④② |③---|
口口口① |④---|
28
口①口口 |①---|
口口②口 |②---|
口③口口 |③---|
口④④口 |④---|
29
口②②口 |----|
口口口口 |----|
口①①口 |①---|
口口口口 |--②-|
30
口口口口 |----|
③②①口 |①---|
口口口口 |②---|
口口口口 |③---|
31
口口口口 |①---|
口口口口 |②---|
①②③④ |③---|
口口口口 |④---|
32
口口口口 |①---|
口②②口 |----|
口口口口 |②---|
口①①口 |----|
33
口口口口 |①---|
口口口口 |----|
口①①口 |----|
口口口口 |----|
34
口口口① |①---|
口口②口 |----|
口口口口 |②---|
口口口口 |----|
35
口口口口 |①---|
口口口口 |----|
口①口口 |----|
口口口口 |----|
36
口口口口 |①---|
口口口口 |----|
口②口口 |②---|
①口口口 |----|
37
口口口口 |①---|
口口①口 |----|
口口口口 |----|
口口口口 |----|
38
①口口口 |①---|
口②口口 |----|
口口口口 |②---|
口口口口 |----|
39
口口口口 |①---|
口口口口 |----|
口口①口 |----|
口口口口 |----|
40
口口口口 |①---|
口口口口 |----|
口口②口 |②---|
口口口① |----|
41
口②②口 |①---|
口①口口 |----|
口口口口 |②---|
口口口口 |----|
42
口口口① |①---|
口口口② |②---|
口口口③ |③---|
口口口④ |④---|
43
口口④口 |①---|
口③口口 |②---|
口口②口 |③---|
口①口口 |④---|
44
①口口口 |①---|
②口口口 |②---|
③口口口 |③---|
④口口口 |④---|
45
口④口口 |①---|
口口③口 |②---|
口②口口 |③---|
口口①口 |④---|
46
口口口口 |①---|
①口口① |----|
②口口② |②---|
口口口口 |----|
47
口口口口 |①---|
口②②口 |----|
口口口口 |②---|
①口口① |----|
48
①口口① |①---|
②口口② |----|
口口口口 |②---|
口口口口 |----|
49
口口口口 |①---|
口口口口 |----|
①口口① |②---|
口②②口 |----|
50
口口口口 |①---|
口④③口 |②---|
口②①口 |③---|
口口口口 |④---|
51
①口口① |①---|
②口口② |②---|
③口口③ |③---|
④口口④ |④---|
52
口口口口 |①---|
②①①② |----|
②①①② |----|
口口口口 |--②-|
53
口②②口 |----|
口口口口 |----|
口①①口 |①---|
口口口口 |--②-|
54
口口口口 |----|
口口口① |①---|
口口口② |②---|
口口口③ |③---|
55
口④④口 |①---|
③③口口 |②---|
口口②口 |③---|
口①口口 |--④-|
56
③口口③ |----|
口②①口 |①---|
口口口口 |②---|
口口口口 |③---|
57
③口口③ |①---|
口②②口 |----|
口①①口 |②---|
口口口口 |--③-|
58
口口口口 |----|
口口口口 |----|
口口口口 |----|
口①①口 |①---|
59
口③③口 |①---|
④②②④ |②---|
口①①口 |③---|
口口口口 |④---|
60
③口口③ |①---|
口口口口 |----|
①②②① |②---|
口口口口 |--③-|
61
口②②口 |----|
口口口口 |----|
①口口① |①---|
口口口口 |--②-|
62
口口口口 |----|
①口口口 |①---|
②口口口 |②---|
③口口口 |③---|
63
口④④口 |①---|
口口③③ |②---|
口②口口 |③---|
口口①口 |--④-|
64
③口口③ |----|
口①②口 |①---|
口口口口 |②---|
口口口口 |③---|
65
③口口③ |①---|
口②②口 |----|
口①①口 |②---|
口口口口 |--③-|
66
口口口口 |----|
口口口口 |----|
口口口口 |----|
口口口口 |----|
67
口口口口 |①---|
口①①口 |----|
口口口口 |----|
口口口口 |----|
68
口口口口 |①---|
口口口口 |----|
口①①口 |----|
口口口口 |----|
69
口①①口 |①---|
口②②口 |----|
口口口口 |②---|
口口口口 |----|
70
口口口口 |①---|
①口口① |②---|
①③②① |③---|
口口④口 |④---|
71
口口④口 |①---|
口③口口 |②---|
口口②口 |③---|
口①口口 |④---|
72
口①口口 |①---|
口口②口 |②---|
口③口口 |③---|
口口④口 |④---|
73
口口口④ |①---|
③口口口 |②---|
口口口② |③---|
①口口口 |④---|
74
口①①口 |①---|
口②②口 |②---|
口③③口 |③---|
口④④口 |④---|
75
口口口口 |①---|
①口口① |----|
①口口① |----|
口口口口 |----|
76
口口①口 |①---|
口口②口 |②---|
口口③口 |③---|
口④④口 |④---|
77
口②②口 |----|
口①口口 |----|
口口口口 |①---|
口口口口 |②---|
78
口口口口 |----|
口口口口 |----|
口口①口 |①---|
口②②口 |②---|
79
口口口口 |----|
①②口口 |①---|
口口③③ |②---|
口口口口 |③---|
80
口口口口 |----|
口口①口 |----|
②②口口 |①---|
口口口口 |②---|
81
口口口口 |----|
口①口口 |----|
口口②② |①---|
口口口口 |②---|
82
口口口口 |----|
口口①口 |----|
②②口口 |①---|
口口口口 |②---|
83
口口口口 |----|
①口口① |①---|
口口口口 |----|
口口口口 |----|
84
口口①口 |①---|
口口②口 |②---|
口口③口 |③---|
口④④口 |④---|
85
口②②口 |----|
口①口口 |----|
口口口口 |①---|
口口口口 |②---|
86
口口口口 |----|
口口口口 |----|
口口①口 |①---|
口②②口 |②---|
87
口口口口 |----|
①②口口 |①---|
口口③③ |②---|
口口口口 |③---|
88
口口口口 |----|
口口①口 |----|
②②口口 |①---|
口口口口 |②---|
89
口口口口 |----|
口①口口 |----|
口口②② |①---|
口口口口 |②---|
90
口口口口 |①---|
口口口口 |----|
口口口口 |----|
①①口口 |----|


不確定度: 0

最終更新:2013年12月29日 20:57