カタルシスの月
日向美ビタースイーツ♪

ADVANCED

Level: 6
BPM: 200
Notes: 442

1
口口口口 |----|
口口口口 |----|
口口口口 |----|
口口口口 |----|
2
口口①① |①---|
口口②② |②---|
③③口口 |③---|
④④口口 |④---|
3
口②口口 |----|
口②口口 |①---|
口口①① |②---|
口口③③ |③---|
4
口口①口 |----|
口口①口 |----|
口口口口 |①---|
②②口口 |②---|
5
口口③③ |----|
②②口口 |①---|
口口①① |②---|
口口口口 |③---|
6
口口口口 |----|
口①①口 |----|
口口口口 |①---|
②口口② |②---|
7
口口口口 |----|
①口口① |----|
口②②口 |①---|
口口口口 |②---|
8
口①①口 |----|
口口口口 |----|
②口口② |①---|
口口口口 |②---|
9
口口口口 |----|
口①①口 |①---|
口①①口 |----|
口口口口 |----|
10
口口①① |①---|
口口②② |②---|
③③口口 |③---|
④④口口 |④---|
11
口②口口 |----|
口②口口 |①---|
口口①① |②---|
口口③③ |③---|
12
口口①口 |----|
口口①口 |----|
口口口口 |①---|
②②口口 |②---|
13
口口③③ |----|
②②口口 |①---|
口口①① |②---|
口口口口 |③---|
14
口口口口 |----|
口①①口 |----|
口口口口 |①---|
②口口② |②---|
15
口口口口 |----|
①口口① |----|
口口口口 |①---|
口②②口 |②---|
16
口口口口 |----|
口口口口 |----|
口口口口 |----|
口口口口 |----|
17
口口口① |①---|
口口口① |----|
①口口口 |②---|
①②②口 |----|
18
口①①口 |①---|
②口③② |----|
口④口口 |②---|
口口口口 |③-④-|
19
口口口口 |----|
口口口口 |----|
①②口① |①---|
口口③口 |②-③-|
20
口口口口 |----|
③口口口 |①---|
口口口② |②---|
①口口口 |③---|
21
②口口① |①---|
口口口③ |②---|
口④口口 |③---|
口口⑤口 |④-⑤-|
22
口口口口 |----|
①②口口 |----|
口口口口 |①---|
口口口口 |②---|
23
口口口口 |①---|
口口②① |②---|
口③④口 |③---|
口口口口 |④---|
24
口①①口 |----|
口口口口 |----|
口口口口 |①---|
口口口口 |----|
25
口口口口 |①---|
②口口② |----|
口口口口 |②---|
口①①口 |----|
26
口①①口 |①---|
口③口口 |----|
口口④口 |②---|
口②②口 |③-④-|
27
口口口① |----|
②口口口 |----|
口①口口 |①---|
口口②口 |②---|
28
口②①口 |①---|
口口口③ |②---|
①口口② |③---|
④③口④ |④---|
29
口②②口 |----|
口口口口 |----|
口口口口 |①---|
口①①口 |--②-|
30
口口口口 |--①-|
口①⑤口 |②---|
口④②口 |③---|
③口口③ |④-⑤-|
31
①口口① |----|
口②口口 |①---|
口口③口 |----|
口口口口 |②-③-|
32
口口口② |①---|
口口口② |----|
口口口口 |②---|
口①口口 |----|
33
口口口口 |①---|
口②②口 |----|
①口口口 |②---|
①口口口 |----|
34
①③③① |①---|
②口口② |----|
口口口口 |②---|
口口口口 |--③-|
35
口口口口 |----|
口口口口 |----|
①口口② |----|
口口口口 |①-②-|
36
口口口口 |①---|
口口口口 |②-③-|
口③口口
口①口②

口口口口
口口口口
口口④口 |--④-|
口⑤口口 |--⑤-|
37
口口口口 |----|
②口口口 |①---|
②口口口 |②---|
口口口① |----|
38
口口①① |①---|
口口口口 |----|
口口口口
口口口口

口③③口
②②口口
口口口口 |②---|
口口口口 |--③-|
39
口口口口 |----|
口口口口 |----|
①口口② |----|
口口口口 |①-②-|
40
口口口口 |①---|
口口口口 |②-③-|
口③口口
口①口②

口口口口
口口口口
口口④口 |--④-|
口⑤⑤口 |--⑤-|
41
口口口口 |----|
①口口口 |----|
①口口口 |①---|
口口口口 |----|
42
口③②口 |①---|
口口口① |----|
口口口① |②---|
口②③口 |--③-|
43
口口口口 |----|
①口口① |----|
②口口② |----|
口口口口 |①-②-|
44
口②②口 |①---|
口③③口 |②-③-|
⑤口口⑤ |--④-|
①④④① |--⑤-|
45
口口口口 |----|
口口口口 |----|
口口口口 |----|
①①口口 |①---|
46
口口②② |①---|
口④③③ |②---|
①①④口 |③---|
口口口口 |④---|
47
口口口口 |----|
口口口口 |----|
②口口口 |----|
口口口① |①-②-|
48
④④口② |①---|
③口口① |②-③-|
口口口口 |----|
口口口口 |④---|
49
口口口口 |①---|
④口②④ |②-③-|
口③口口 |--④-|
口口①① |----|
50
口口口口 |①---|
口口口口 |②---|
④口口③ |③---|
②口口① |④---|
51
口⑧⑦口 |①-②-|
口⑥⑤口 |③-④-|
口④③口 |⑤-⑥-|
口②①口 |⑦-⑧-|
52
①口口① |①---|
②口口② |----|
②口口② |----|
口口口口 |--②-|
53
②口口② |----|
口①①口 |----|
口①①口 |①---|
口口口口 |--②-|
54
口②②口 |----|
口口口口 |----|
口①①口 |----|
口口口口 |①-②-|
55
口口口口 |----|
口口口口 |----|
②口口② |①---|
①口口① |--②-|
56
②口口② |--①-|
①口口① |----|
口口口口 |----|
口口口口 |②---|
57
口③③口 |①---|
口口口口 |----|
②口口② |②---|
①口口① |--③-|
58
口口口① |----|
口口口① |----|
口口口口 |----|
口口口口 |①---|
59
口口①口 |①---|
口④①口 |②---|
②③④口 |③---|
②③口口 |④---|
60
①④④② |①---|
口口口口 |----|
口口口口 |②---|
②③③① |③-④-|
61
口③③口 |----|
②口口② |----|
口①①口 |①-②-|
口口口口 |--③-|
62
口②②口 |----|
口口口口 |----|
口①①口 |----|
口口口口 |①-②-|
63
口口口口 |----|
口口口口 |----|
口②②口 |①---|
①口口① |--②-|
64
①②②① |--①-|
口口口口 |----|
口口口口 |----|
口口口口 |②---|
65
口③③口 |①---|
口口口口 |----|
口①①口 |②---|
口②②口 |--③-|
66
口口口口 |----|
口口口口 |----|
①②口口 |----|
口口口口 |①-②-|
67
③⑤⑤① |①---|
③口口① |②-③-|
口口②口 |--④-|
口④④口 |⑤---|
68
口口口口 |①---|
口口口口 |----|
口口口口 |----|
①口口① |----|
69
①①①① |①---|
②②②② |----|
口口口口 |②---|
口口口口 |----|
70
口口口口 |①---|
口口口口 |②---|
①①①① |③---|
②③④口 |④---|
71
口口口口 |①---|
④③②① |②---|
④③②① |③---|
口口口口 |④---|
72
④口口口 |①---|
口③③口 |②---|
口口口② |③---|
口①①口 |④---|
73
口口口口 |①---|
②口口口 |②---|
口①①口
口口口口

口口口口
口口④③
口⑤口口 |③---|
口口口口 |④-⑤-|
74
口口口口 |①---|
④口口④ |②---|
③口口③ |③---|
②①①② |④---|
75
口①①口 |①---|
口口口口 |----|
口口口口 |②---|
口②②口 |----|
76
①①口口 |①---|
②②口口 |②---|
口口③③ |③---|
口口④④ |④---|
77
口口②口 |----|
口口②口 |①---|
①①口口 |②---|
③③口口 |③---|
78
口①口口 |----|
口①口口 |----|
口口口口 |①---|
口口②② |②---|
79
③③口口 |----|
口口②② |①---|
①①口口 |②---|
口口口口 |③---|
80
口口口口 |----|
口①①口 |----|
口口口口 |①---|
②口口② |②---|
81
口口口口 |----|
①口口① |----|
口②②口 |①---|
口口口口 |②---|
82
口①①口 |----|
口口口口 |----|
②口口② |①---|
口口口口 |②---|
83
口口口口 |----|
口①①口 |①---|
口①①口 |----|
口口口口 |----|
84
①①口口 |①---|
②②口口 |②---|
口口③③ |③---|
口口④④ |④---|
85
口口②口 |----|
口口②口 |①---|
①①口口 |②---|
③③口口 |③---|
86
口①口口 |----|
口①口口 |----|
口口口口 |①---|
口口②② |②---|
87
③③口口 |----|
口口②② |①---|
①①口口 |②---|
口口口口 |③---|
88
口口口口 |----|
口①①口 |----|
口口口口 |①---|
②口口② |②---|
89
口口口口 |----|
①口口① |----|
口②②口 |①---|
口口口口 |②---|
90
口口口口 |①---|
口口口口 |----|
①口口① |----|
①口口① |----|


不確定度: 0

最終更新:2013年12月29日 20:56