やさしくなりたい
斉藤和義

ADVANCED

Level: 6
BPM: 132
Notes: 377

1
口口口口 |----|
口口口口 |----|
口口口口 |----|
口口口口 |----|
2
②④口口 |①-②-|
口口⑥⑧ |③-④-|
口口⑤⑦ |⑤-⑥-|
①③口口 |⑦-⑧-|
3
口口④② |①-②-|
⑧⑥口口 |③-④-|
⑦⑤口口 |⑤-⑥-|
口口③① |⑦-⑧-|
4
口③口口 |①---|
口口口① |②-③-|
口口口①
口②口口

口口口口
口口⑤⑦
口口④⑥ |④-⑤-|
口口口口 |⑥-⑦-|
5
口⑥④② |①-②-|
⑥⑦口口 |③-④-|
⑦⑧⑤口 |⑤-⑥-|
⑧口③① |⑦-⑧-|
6
口③口口 |①---|
口口口① |②-③-|
口口口①
口②口口

⑤口⑦口
口口口⑦
口⑥口口 |④-⑤-|
④口口口 |⑥-⑦-|
7
口③口口 |--①-|
③④①口 |--②-|
④⑤②① |--③-|
⑤口口② |④-⑤-|
8
口③口口 |①---|
口口口① |②-③-|
口口口①
口②口口

口口口口
口口⑤⑦
口口④⑥ |④-⑤-|
口口口口 |⑥-⑦-|
9
口⑤④② |①-②-|
⑤⑥口口 |③-④-|
⑥⑦口口 |⑤-⑥-|
⑦口③① |--⑦-|
10
口⑤③口 |①---|
⑤⑥口① |②-③-|
⑥⑦口① |④-⑤-|
⑦口②④ |⑥-⑦-|
11
③口④④ |--①-|
③口⑥⑥ |--②-|
⑤口①① |③-④-|
⑤口②② |⑤-⑥-|
12
③口②② |①---|
③口口口 |②-③-|
口①口口
口①口口

口口口口
口口口口
口口口⑤ |----|
④④口⑤ |④-⑤-|
13
口①④口 |----|
口②③口 |----|
口③②口 |①-②-|
口④①口 |③-④-|
14
④⑤口① |①---|
③口口② |②-③-|
②口口③ |----|
①口⑤④ |④-⑤-|
15
口口口口 |----|
口口口口 |----|
④④口③ |①-②-|
②②口① |③-④-|
16
②②口口 |①---|
口口口① |②-③-|
口口口③
口口口③

口口口口
口口⑤⑤
④④口口 |----|
口口口口 |④-⑤-|
17
②④③① |----|
①③④② |----|
口口口口 |①-②-|
口口口口 |③-④-|
18
口口口口 |----|
口口口口 |①-②-|
口③②口 |--③-|
口④①口 |--④-|
19
①口口② |----|
③①②④ |----|
口③④口 |①-②-|
口口口口 |③-④-|
20
口口②② |①---|
⑤⑤口口 |②-③-|
③③口口 |----|
①①④④ |④-⑤-|
21
口⑤口④ |----|
③口口口 |--①-|
口口②口 |②-③-|
口①口口 |④-⑤-|
22
口口口口 |①---|
口口①口 |②-③-|
②口口口 |--④-|
④⑤⑤③ |--⑤-|
23
口④口口 |----|
口②口口 |----|
口口③口 |①-②-|
①口口口 |③-④-|
24
②口口口 |①---|
口口③口 |②-③-|
口口口①
口口口口

⑤⑤口④
口口口口
口口口口 |--④-|
口口口口 |--⑤-|
25
④④口口 |----|
口③口口 |----|
口口②口 |①-②-|
口口①口 |③-④-|
26
口口口② |----|
口口口② |①-②-|
口口口口
口口口①

口口口口
③口口口
③口口口 |--③-|
口口④④ |--④-|
27
①口口口 |----|
口口口口 |----|
口口口口 |----|
口口口① |--①-|
28
口⑤④③ |①-②-|
①⑥⑦② |③-④-|
②⑦⑥① |⑤---|
③④⑤口 |⑥-⑦-|
29
口口口① |----|
口口口口 |----|
口口口口 |----|
①口口口 |--①-|
30
③④⑤口 |①-②-|
②⑦⑥① |③-④-|
①⑥⑦② |⑤---|
口⑤④③ |⑥-⑦-|
31
口口口口 |----|
口口口口 |----|
口口口口 |----|
口口口口 |----|
32
口口口口 |①-②-|
④③②① |③-④-|
①②③④
口口口口

⑤⑥口口
口⑦口口
口口⑦口 |⑤---|
口口⑥⑤ |⑥-⑦-|
33
口口口口 |----|
口口口口 |----|
口口口口 |----|
口口口口 |----|
34
口口口口 |①-②-|
①②③④ |③-④-|
④③②①
口口口口

口口⑥⑤
口口⑦口
口⑦口口 |⑤-⑥-|
⑤⑥口口 |--⑦-|
35
口口口口 |----|
口①①口 |----|
口①①口 |①---|
口口口口 |----|
36
①②④③ |①-②-|
口口口口 |③-④-|
④口口②
③口口①

⑦口口⑦
⑤口口⑤
口口口口 |⑤-⑥-|
口⑥⑥口 |--⑦-|
37
口①口① |----|
口口口口 |----|
口口口口 |----|
口口口口 |--①-|
38
①口①口 |--①-|
③②③② |②-③-|
⑦⑤④⑥ |④-⑤-|
⑦⑤④⑥ |⑥-⑦-|
39
口口口口 |----|
口口口口 |----|
口口口口 |----|
口口口口 |----|
40
口口口口 |①-②-|
①②③④ |③-④-|
④③②①
口口口口

口⑥口⑤
口⑦口口
口口⑦口 |⑤---|
⑤口⑥口 |⑥-⑦-|
41
口口口口 |----|
口①口口 |----|
口口口口 |----|
口口口口 |--①-|
42
①口口③ |①-②-|
口口②口 |③-④-|
⑤口口⑦ |⑤-⑥-|
口④⑥口 |--⑦-|
43
①口口① |----|
口口口口 |----|
口口口口 |----|
口口口口 |--①-|
44
口⑥⑥口 |--①-|
①②①② |②-③-|
⑤口口④ |④-⑤-|
⑤③③④ |--⑥-|
45
口①口① |----|
口口口口 |----|
口口口口 |----|
口口口口 |--①-|
46
①口①口 |--①-|
③②③② |②-③-|
⑦⑤④⑥ |④-⑤-|
⑦⑤④⑥ |⑥-⑦-|
47
口口口口 |----|
口口口口 |----|
口口口口 |----|
口口口口 |----|
48
⑦⑦⑥⑥ |①-②-|
口口⑤⑤ |③-④-|
①②④④ |⑤---|
①②③③ |⑥-⑦-|
49
①口口口 |----|
口口口口 |----|
口口口口 |----|
口口口① |--①-|
50
口⑦④③ |①-②-|
①⑥⑤② |③-④-|
②⑤⑥① |⑤---|
③④⑦口 |⑥-⑦-|


不確定度: 0

タグ:

+ タグ編集
  • タグ:

このサイトはreCAPTCHAによって保護されており、Googleの プライバシーポリシー利用規約 が適用されます。

最終更新:2013年04月07日 23:37