いーあるふぁんくらぶ
みきとP

EXTREME

Level: 8
BPM: 145
Notes: 607

1
口口口口 |----|
口①①口 |----|
口①①口 |-①--|
口口口口 |----|
2
口口口口 |----|
口口口口 |----|
口口口口 |----|
口口口口 |----|
3
①①口口 |①---|
③③②② |②---|
口口④④ |③---|
口口口口 |④---|
4
口口口口 |①---|
③③②② |②---|
①①④⑤ |③-④-|
口口④⑤ |⑤---|
5
①①口口 |①---|
③③②② |②---|
口口④④ |③---|
口口口口 |④---|
6
口口口口 |①---|
③③②② |②---|
①①④⑤ |③-④-|
口口④⑤ |⑤---|
7
①①口口 |①---|
⑤⑤③③ |②-③-|
②②⑥⑥ |④---|
④④口口 |⑤-⑥-|
8
①①口口 |①---|
口口③③ |②-③-|
②②⑤⑥ |④-⑤-|
④④⑤⑥ |⑥---|
9
①①口② |①-②-|
③③④口 |③-④-|
⑤⑤口⑥ |⑤-⑥-|
⑦⑦⑧口 |⑦-⑧-|
10
①①②口 |①-②-|
③③口④ |③-④-|
⑤⑤⑥口 |⑤-⑥-|
⑦⑦口⑧ |⑦-⑧-|
11
①②③口 |①-②-|
④⑤①口 |③-④⑤|
口口⑥⑦ |-⑥⑦-|
⑧口⑨⑩ |⑧-⑨⑩|
12
口口口口 |①②③-|
⑤⑥口口 |④-⑤⑥|
②③口④
口①口口

口口⑦⑧
口口⑩口
口⑨口口 |-⑦⑧-|
口口口口 |⑨-⑩-|
13
口口口口 |①-②-|
①口口① |--③-|
①③口①
口口②口

口口口④
口口口口
⑥口口⑤ |④-⑤-|
口口口口 |--⑥-|
14
①口①口 |①-②-|
口口④口 |--③-|
口⑥②口 |④-⑤-|
口③⑤口 |--⑥-|
15
④①口① |①-②-|
口⑥口口 |--③-|
⑤口②口 |④-⑤-|
口③口口 |--⑥-|
16
口①口① |①-②-|
③口口口 |--③-|
口⑤②口 |④-⑤-|
④⑥⑥口 |⑥---|
17
⑦①口口 |①-②-|
②③⑥⑤ |③---|
口口④口 |④--⑤|
口口口口 |--⑥⑦|
18
口口②③ |①-②-|
①口口口 |③---|
口⑤口⑦ |④-⑤-|
④口⑥口 |⑥-⑦-|
19
④①⑤口 |①-②-|
②③⑥口 |③---|
口⑦口口 |④-⑤⑥|
口口口口 |--⑦-|
20
②口④① |①-②-|
①②口口 |③-④-|
口口②①
①③口②

⑦⑦口口
口口⑥⑥
⑤⑤口口 |⑤-⑥-|
口口口口 |⑦---|
21
⑦④口口 |--①②|
口口⑥⑤ |③---|
①③口口 |④--⑤|
口②口口 |--⑥⑦|
22
口口②③ |①-②-|
①口口口 |③-④-|
④⑧⑥口 |⑤-⑥-|
口⑤⑦口 |⑦-⑧-|
23
①②⑩口 |①②③④|
③④口⑫ |⑤⑥⑦⑧|
⑨口⑤⑥ |⑨-⑩-|
口⑪⑦⑧ |⑪-⑫-|
24
②口口① |①-②-|
①②口口 |----|
口口②①
①口口②

口口口口
口③③口
口③③口 |----|
口口口口 |③---|
25
口③②② |①-②-|
口口口① |③-④-|
口口口口
口口口④

口口⑧⑧
口⑦口口
⑤口⑥⑥ |⑤-⑥⑦|
口口口口 |--⑧-|
26
①口口口 |①-②-|
③口②② |③-④-|
口口④口 |⑤-⑥-|
⑤⑥⑧⑦ |⑦-⑧-|
27
②②③口 |①-②-|
①口口口 |③-④-|
口口口口
④口口口

⑧⑧口口
口口⑦口
⑥⑥口⑤ |⑤-⑥⑦|
口口口口 |--⑧-|
28
口口口① |①-②③|
②②口④ |④-⑤-|
⑧⑤③⑧ |⑥-⑦-|
⑥⑥⑦⑦ |⑧---|
29
口②①① |--①②|
口口③口 |③-④-|
口口口口
口口口④

口口⑨⑨
⑤口口口
口⑧⑥口 |⑤-⑥⑦|
⑦口口口 |⑧-⑨-|
30
①口口口 |①-②-|
③口②② |③-④-|
⑥⑦⑧口 |⑤-⑥-|
口口⑤④ |⑦-⑧-|
31
①⑤⑥① |①-②-|
口③③口 |③-④-|
④⑦⑧④ |⑤-⑥-|
②口口② |⑦-⑧-|
32
口口口口 |①-②-|
①②②① |③---|
口口口口
③口口③

口口口口
口⑤⑤口
口④④口 |④---|
口口口口 |⑤---|
33
口口口口 |①-②-|
口口口③ |③-④-|
口口④口
口口①②

口口口口
口口口口
口口口⑤ |⑤---|
口口⑥⑦ |⑥-⑦-|
34
④⑤口口 |①-②-|
口口口① |③---|
④⑤②③ |④---|
口口口口 |⑤---|
35
口口①② |①-②-|
口口④口 |③-④-|
口口③口
口口口口

口口⑥⑦
口口口⑤
口口口口 |⑤---|
口口口口 |⑥-⑦-|
36
口口口口 |①-②-|
④⑤②③ |③---|
口口①口 |④---|
④⑤口口 |⑤---|
37
①①口口 |①-②-|
口口口③ |③-④-|
口口④口
口口①②

口口口口
⑤⑤口口
口口口⑤ |⑤---|
口口⑥⑦ |⑥-⑦-|
38
口口口① |①---|
口口口③ |②---|
①①②口 |③---|
③③口口 |----|
39
⑤⑤⑥⑥ |①---|
①①④④ |②-③-|
口口口口 |④---|
③③②② |⑤-⑥-|
40
口③③口 |①---|
②③③② |②---|
①②②① |③---|
口①①口 |----|
41
①③口① |①---|
③口⑤口 |②---|
口⑤口④ |③-④-|
②口④② |⑤---|
42
①③⑥① |①-②-|
③口⑦⑥ |③-④-|
⑤⑦口④ |⑤-⑥-|
②⑤④② |⑦---|
43
口口③① |----|
②口口② |①---|
①口口① |②---|
②③口口 |③---|
44
①口口③ |①-②-|
⑤④②⑤ |③-④-|
⑤②④⑤ |⑤---|
③口口① |----|
45
①③口① |①---|
③口⑤口 |②---|
口⑤口④ |③-④-|
②口④② |⑤---|
46
口口①① |①---|
口口口口 |②-③-|
口口口口
③③②②

口口口⑥
⑤口口④
⑥⑤④口 |④-⑤-|
口口口口 |⑥---|
47
①口口② |①---|
④口口口 |----|
②⑤⑤① |②-③-|
口③③④ |④-⑤-|
48
口②③口 |①---|
②①①③ |----|
②口口③ |②---|
口②③口 |③---|
49
口口口口 |①---|
口口口口 |----|
口①①口
①口口①

口口口②
④口口口
②⑤⑤口 |②-③-|
口③③④ |④-⑤-|
50
①①④③ |①---|
口②①① |②---|
口口④③ |③---|
口②口口 |④---|
51
①口⑦③ |①--②|
口④⑦③ |③-④-|
⑧②⑤⑤ |⑤-⑥-|
⑥⑥口口 |⑦-⑧-|
52
①口⑦③ |①--②|
⑧④⑦③ |③-④-|
口②⑤⑤ |⑤-⑥-|
⑥⑥口口 |⑦-⑧-|
53
口口口③ |①---|
③口口口 |②---|
④①口② |③---|
②口口④ |④---|
54
①口①口 |①-②-|
⑤②口⑤ |③-④-|
口④⑥⑦ |⑤-⑥-|
③口③口 |⑦---|
55
①口⑦③ |①--②|
口④⑦③ |③-④-|
⑧②⑤⑤ |⑤-⑥-|
⑥⑥口口 |⑦-⑧-|
56
①口⑦③ |①--②|
⑧④⑦③ |③-④-|
口②⑤⑤ |⑤-⑥-|
⑥⑥口口 |⑦-⑧-|
57
④口口③ |①-②-|
口②口③ |③-④-|
①口口口
口口①口

口口⑦口
口口⑦口
⑥⑧口⑤ |⑤-⑥-|
口⑤口口 |⑦-⑧-|
58
①⑤⑥① |①-②-|
⑤③④⑥ |③-④-|
⑤口②⑥ |⑤---|
口⑤⑥口 |⑥---|
59
口口口口 |①---|
口口口口 |----|
口①①口
①口口①

口口口②
④口口口
②⑤⑤口 |②-③-|
口③③④ |④-⑤-|
60
①②③口 |①②③④|
口④⑤① |⑤-⑥⑦|
⑧⑨⑩口 |⑧⑨⑩-|
⑪⑥⑦⑪ |⑪---|
61
①①①① |①---|
口口口口 |----|
口口口口 |----|
口口口口 |----|
62
口口口口 |----|
①口②口 |①-②-|
①③②口 |③---|
口③口口 |----|
63
口口口口 |--①②|
口口口口 |③---|
口①口③ |----|
口口②口 |----|

不確定度: 0

最終更新:2014年08月02日 00:21