天ノ弱
164 feat. GUMI

EXTREME

Level: 9
BPM: 200-205
Notes: 675

全程BPM在200-205間飄忽不定
1
口口口口 |----|
口口口口 |----|
口口口口 |----|
口口口口 |----|
2
口口口口 |----|
①②口口 |----|
口口口口 |----|
口口口口 |①-②-|
3
口口口口 |①---|
口口①口 |②---|
⑤口④③ |--③-|
口②口口 |④-⑤-|
4
口口②口 |①---|
口③④口 |②---|
口①口口 |----|
口口口口 |③-④-|
5
口口口口 |①---|
口口口① |②-③-|
口口口口
口②③口

口口口口
口口口⑥
④⑤口口 |--④-|
口口口口 |⑤-⑥-|
6
②③口口 |①-②-|
⑤⑥①口 |③---|
口口口口 |④---|
口口口④ |⑤-⑥-|
7
口口⑤④ |①---|
⑥口①口 |②-③-|
口口口口 |--④-|
口②③口 |⑤-⑥-|
8
口口口口 |①---|
口①口② |②---|
口口④③ |----|
口口口口 |③-④-|
9
口口口口 |①-②-|
⑤口③口 |--③-|
①②口口 |--④-|
口④口口 |--⑤-|
10
口④口口 |①-②-|
口①③② |③---|
口口⑥⑤ |④---|
口口口口 |⑤-⑥-|
11
口口④③ |①---|
口⑤⑥③ |②-③-|
①②口口 |--④-|
①口口口 |⑤-⑥-|
12
口②口② |①---|
③④口口 |②---|
口口口口 |----|
①口①口 |③-④-|
13
口口口口 |①---|
口口②口 |②-③-|
③⑤⑥① |--④-|
③口④① |⑤-⑥-|
14
③口口③ |①-②-|
口①②口 |③---|
口口口口
口口口口

口口口口
⑤⑥口口
口口口口 |④---|
④口口④ |⑤-⑥-|
15
口口②口 |①---|
⑤口口⑥ |②-③-|
口③③④ |--④-|
口①①口 |⑤-⑥-|
16
口②口② |①---|
口口口口 |②---|
③口口口 |----|
①③①口 |③---|
17
口口①口 |①---|
口口②① |②-③-|
口③口口
口口口口

口口⑥口
口⑤口口
口口④口 |--④-|
口口口口 |⑤-⑥-|
18
③口口④ |①---|
口④③② |②---|
①②口口 |③---|
口口①口 |④---|
19
口②②口 |①---|
⑤口口⑤ |②---|
①口④① |③-④-|
①⑥③① |⑤-⑥-|
20
②口⑤② |--①-|
口①⑤口 |②---|
④口口③ |③-④-|
口口口口 |⑤---|
21
③①口② |①-②-|
⑤口口④ |③-④-|
⑦口口⑥ |⑤-⑥-|
口口口⑧ |⑦-⑧-|
22
④口口③ |①---|
口②②⑤ |②---|
口①①口 |③-④-|
口口口口 |⑤---|
23
口②②口 |①---|
⑤口口⑤ |②---|
口口④口 |③-④-|
①⑥③① |⑤-⑥-|
24
②⑤⑤② |--①-|
口①口口 |②---|
④口口③ |③-④-|
口口口口 |⑤---|
25
⑧口口口 |①-②-|
口口口口 |③-④-|
口⑦⑥⑤ |⑤-⑥-|
④③②① |⑦-⑧-|
26
口口⑥⑤ |①-②-|
④③②① |③-④-|
口口口⑦ |⑤-⑥-|
口口口⑦ |⑦---|
27
③③口口 |①---|
口⑥⑤④ |②-③-|
口口②口 |--④-|
①①口口 |⑤-⑥-|
28
②口②口 |①---|
口口④③ |②---|
口口口口 |----|
口①口① |③-④-|
29
口⑤口口 |①---|
口②口口 |②-③-|
④口口④ |--④-|
①①③③ |--⑤-|
30
②口口② |①---|
口口⑤④ |②---|
口①①口 |③---|
③口口③ |④-⑤-|
31
口口③③ |①---|
口②口口 |②-③-|
①①口口
口口口口

口口口口
口口口口
口⑥⑤④ |--④-|
口口口口 |⑤-⑥-|
32
②口②口 |①---|
口口口口 |②---|
口口④③ |----|
口①口① |③-④-|
33
口口③③ |①---|
①①口④ |②-③-|
⑤②口⑥ |--④-|
口口口口 |⑤-⑥-|
34
③口口③ |①-②-|
⑤⑥口口 |③---|
口口口口 |④---|
④①②④ |⑤-⑥-|
35
口口③口 |①---|
④⑤⑥③ |②-③-|
口②口① |--④-|
口口①口 |⑤-⑥-|
36
②口②口 |①---|
口口口口 |②---|
口口口③ |----|
口①③① |③---|
37
口①④口 |①---|
①口②④ |②-③-|
③口口口 |--④-|
口③口口 |----|
38
①口口① |①---|
②口口口 |②---|
④⑤②③ |③---|
口③口口 |④-⑤-|
39
③④口① |①---|
③⑥⑤① |②-③-|
口口②口 |--④-|
口口口口 |⑤-⑥-|
40
②口②口 |①---|
③口口④ |②---|
口口口口 |----|
口①口① |③-④-|
41
③口口③ |①---|
口口口口 |②-③-|
②⑥⑤口 |--④-|
④①①口 |⑤-⑥-|
42
③②①口 |①---②-|
③②口⑥ |--③---|
③口⑤⑥ |④---⑤-|
口④⑤⑥ |--⑥---|
43
口口口① |①---|
口口②口 |--②-|
口③口口 |③---|
①口口口
44
口口口口 |----|
口①口口 |①-②-|
口口②口 |----|
口口口口
45
②①①② |①---|
口口口口 |--②-|
口口口口 |----|
口口口口
46
口口⑤口 |①---|
口④口口 |②-③-|
口口③口 |④-⑤-|
①②口①
47
①口口① |①---|
口口口③ |--②-|
口②口③ |③---|
口口口口
48
口②口口 |①---|
①口口口 |--②-|
①③③口 |③---|
口口口口
49
③③口② |①---|
口口口② |②---|
④口口口 |③---|
④口①① |④---|
50
②②③③ |①---|
口①①口 |----|
口①①口 |②---|
③口口② |③---|
51
口口口口 |①---|
①③口① |--②-|
①口口① |----|
口②②③ |③---|
52
③口①② |①---|
③口口② |----|
①口口口 |②---|
②口口③ |③---|
53
④①①④ |①---|
口口③口 |--②-|
④③口口 |--③-|
口②②口 |④---|
54
口口②口 |①---|
口③口① |----|
口口④口 |②-③-|
①⑤口① |④-⑤-|
55
①口口① |①---|
①口口口 |②---|
③口口② |----|
②口③② |③---|
56
②口口② |①---|
口口口① |②---|
口①③口 |----|
口口③口 |③---|
57
③③②② |①---|
③③②② |②---|
①①④④ |③---|
①①④④ |④---|
58
②口口② |①---|
口②口口 |----|
口①③口 |②---|
③①口③ |③---|
59
口口口口 |①---|
①③口① |--②-|
①口口① |----|
口②②③ |③---|
60
③口①② |①---|
②口口③ |----|
①口口口 |②---|
②口口③ |③---|
61
④①①④ |①---|
口口③口 |--②-|
口③口④ |--③-|
口②②口 |④---|
62
口口②口 |①---|
口②口① |----|
②口①口 |②---|
①口口口 |----|
63
口口⑥口 |①-②-|
口口⑤⑥ |--③-|
④③①② |④---|
口④②口 |⑤-⑥-|
64
口②口口 |--①-|
②①口口 |②---|
④⑤口③ |③-④-|
④口口③ |--⑤-|
65
④③①② |①-②-|
④③①② |--③-|
⑥口口⑤ |④---|
口口口口 |⑤-⑥-|
66
口④⑤口 |①-②-|
口⑥③口 |③-④-|
口②⑦口 |⑤-⑥-|
口⑧①口 |⑦-⑧-|
67
⑤口口⑤ |①---|
①④②① |②-③-|
③③口口 |--④-|
①口口① |⑤---|
68
⑧口口⑦ |①-②-|
口⑥⑤口 |③-④-|
④口口③ |⑤-⑥-|
口②①口 |⑦-⑧-|
69
口②口口 |①---|
①口口① |②-③-|
口④③③ |--④-|
①⑤⑤① |⑤---|
70
⑧⑦⑥⑤ |①-②-|
④③②① |③-④-|
口口口口 |⑤-⑥-|
口口口口 |⑦-⑧-|
71
口口口口 |①---|
口口③口 |②---|
口②④① |③---|
②口①④ |④---|
72
②③口② |①---|
口口④④ |②---|
①口口口 |③---|
口①口口 |④---|
73
③③②② |①---|
①①④④ |②---|
③③②② |③---|
①①④④ |④---|
74
口⑤⑥口 |①-②-|
①②口口 |③-④-|
口口④③ |⑤-⑥-|
口⑦⑧口 |⑦-⑧-|
75
⑤口口⑤ |①---|
①④②① |②-③-|
③③口口 |--④-|
①口口① |⑤---|
76
⑧口口⑦ |①-②-|
口⑥⑤口 |③-④-|
④口口③ |⑤-⑥-|
口②①口 |⑦-⑧-|
77
口口口口 |①---|
①口口① |②-③-|
④③⑤② |--④-|
①③⑤① |⑤---|
78
⑧⑤②⑦ |①-②-|
⑥③④① |③-④-|
口口口口 |⑤-⑥-|
口口口口 |⑦-⑧-|
79
口口⑥口 |①-②-|
口口⑤⑥ |--③-|
④③①② |④---|
口④②口 |⑤-⑥-|
80
口②口口 |--①-|
②①口口 |②---|
④⑤口③ |③-④-|
④口口③ |--⑤-|
81
④③①② |①-②-|
④③①② |--③-|
⑥口口⑤ |④---|
口口口口 |⑤-⑥-|
82
④③口口 |①-②-|
口⑥⑤口 |③-④-|
口⑧⑦口 |⑤-⑥-|
口口②① |⑦-⑧-|
83
口②口口 |①---|
①口口① |②---|
口口口口
①口口①

口口口口
口口③口
口口口口 |③---|
④口口口 |--④-|
84
②③口① |--①-|
口口④口 |②---|
口口口口 |③---|
口口口口 |④---|
85
口口③口 |①-②-|
口④口口 |③---|
⑥口口⑤ |④---|
②口口① |⑤-⑥-|
86
口②②口 |①---|
口③③口 |----|
口④④口 |②---③-|
口①①口 |--④---|
87
①口口① |①---|
口口口② |②---|
口口口口 |③---|
③④④口 |--④-|
88
口②口③ |--①-|
口口口口 |②---|
④口①口 |③---|
口口口口 |④---|
89
口口①⑤ |①-②-|
⑥②③口 |--③-|
口④口口 |④---|
口口口口 |⑤-⑥-|
90
口口③口 |--①-|
口④口① |②---|
②口⑤口 |③-④-|
口⑥口口 |⑤-⑥-|
91
口口口③ |①-②-|
②口口口 |③---|
口口口① |④---|
⑤口口④ |--⑤-|
92
口口口④ |--①-|
⑤口②口 |②-③-|
口③口⑥ |④-⑤-|
⑦①口口 |⑥-⑦-|

不確定度: 0

最終更新:2014年08月01日 23:44