セツナトリップ
Last Note. feat. GUMI

EXTREME

Level: 9
BPM: 145
Notes: 715

1
口口口① |----|
口口口口 |----|
口口口口 |----|
口口口口 |①---|
2
⑤口口⑧ |①②③④|
⑧①④口 |⑤⑥⑦⑧|
口③②口
⑦口口⑥

口⑫⑮口
口⑯口⑪
⑩口口⑨ |⑨⑩⑪⑫|
口⑭⑬口 |⑬⑭⑮⑯|
3
⑦⑦⑩⑥ |①-②③|
⑨口①⑩ |④⑤⑥⑦|
⑪⑤口④ |-⑧⑨-|
③⑪⑧② |⑩-⑪-|
4
⑤口口⑧ |①②③④|
⑧①④口 |⑤⑥⑦⑧|
口③②口
⑦口口⑥

口⑫⑮口
口⑯口⑪
⑩口口⑨ |⑨⑩⑪⑫|
口⑭⑬口 |⑬⑭⑮⑯|
5
⑦⑦⑩⑥ |①-②③|
⑨口①⑩ |④⑤⑥⑦|
⑪⑤口④ |-⑧⑨-|
③⑪⑧② |⑩-⑪-|
6
⑤口口⑧ |①②③④|
⑧①④口 |⑤⑥⑦⑧|
口③②口
⑦口口⑥

口⑫⑮口
口⑯口⑪
⑩口口⑨ |⑨⑩⑪⑫|
口⑭⑬口 |⑬⑭⑮⑯|
7
⑦⑦⑩⑥ |①-②③|
⑨口①⑩ |④⑤⑥⑦|
⑪⑤口④ |-⑧⑨-|
③⑪⑧② |⑩-⑪-|
8
⑤口口⑧ |①②③④|
⑧①④口 |⑤⑥⑦⑧|
口③②口
⑦口口⑥

口⑫⑮口
口⑯口⑪
⑩口口⑨ |⑨⑩⑪⑫|
口⑭⑬口 |⑬⑭⑮⑯|
9
③⑥⑥④ |①-②-|
③口口④ |③-④-|
口②①口 |⑤---|
②⑤⑤① |⑥---|
10
④口口⑤ |①-②-|
口⑥③口 |③-④⑤|
②口⑦口 |--⑥-|
口⑧口① |⑦-⑧-|
11
口口⑥⑤ |--①-|
口⑦口① |②-③④|
③④口口 |-⑤⑥-|
口口⑧② |⑦-⑧-|
12
①①口口 |①---|
③口口④ |--②-|
口口②② |----|
③口口④ |③-④-|
13
口③④口 |--①②|
⑤口口口 |--③④|
⑧①②口 |-⑤-⑥|
口⑥⑦口 |⑦-⑧-|
14
⑦①④⑩ |--①②|
⑪⑤②⑧ |③-④⑤|
⑨③⑥口 |⑥-⑦⑧|
口口口口 |⑨-⑩⑪|
15
口口口口 |①---|
口口口口 |②---|
口②口①
口②口口

口口口口
口口口口
口口③⑤ |③---|
④口③口 |④-⑤-|
16
①口①口 |①---|
口口②口 |--②-|
口③口⑥ |③-④-|
⑤口口④ |--⑤⑥|
17
①口口③ |①---|
口④口口 |②---|
口口②⑤ |③---|
口口口口 |④-⑤-|
18
口口口口 |①---|
口口口口 |--②-|
③口③口 |----|
①②①② |③---|
19
口口②口 |--①-|
口口口口 |--②-|
口①口①
口口口口

口口口口
口口口口
口⑤口口 |③---|
③口③④ |④-⑤-|
20
②①②① |①---|
口③口③ |--②-|
口口口口 |----|
口口口口 |③---|
21
②口③③ |①---|
②口口口 |----|
①口①⑤ |②-③-|
④④口⑤ |④-⑤-|
22
口口口口 |①---|
口①①③ |--②-|
②①①口 |----|
口口口口 |③---|
23
口①①口 |①---|
②口口口 |--②-|
口口口③ |----|
口口口口 |③---|
24
④口④口 |①---|
口③口③ |②---|
②口②口 |③---|
口①口① |④---|
25
口口口① |①---|
口口口③ |--②-|
④②口口 |----|
口口口口 |--③④|
26
②⑤②⑤ |①--②|
⑥口③⑥ |--③-|
口口口口 |④--⑤|
④口口① |--⑥-|
27
⑦⑤⑥口 |--①-|
⑤口⑧⑥ |②-③-|
③①②④ |④-⑤-|
①③④② |⑥-⑦⑧|
28
口⑤口② |①-②③|
口③口⑥ |④-⑤⑥|
口口口口
①口口④

⑧口口口
口口口口
口口⑨口 |⑦-⑧-|
⑩⑦口口 |⑨-⑩-|
29
口④⑤① |①-②-|
口②口⑥ |③-④⑤|
⑦④⑤口 |----|
口口口③ |--⑥⑦|
30
②⑤②⑤ |①--②|
⑥口③⑥ |--③-|
口口口口 |④--⑤|
④口口① |--⑥-|
31
⑦⑤⑥口 |--①-|
⑤口⑧⑥ |②-③-|
③①②④ |④-⑤-|
①③④② |⑥-⑦⑧|
32
口⑤⑨② |①-②③|
口③口⑥ |④-⑤⑥|
⑧⑩口口 |⑦-⑧-|
①⑦口④ |⑨-⑩-|
33
口口口口 |①---|
口②②口 |----|
口口口口 |②---|
①口口① |----|
34
⑨②③⑥ |①-②③|
口④⑤口 |④⑤-⑥|
⑩⑧⑦⑨ |-⑦-⑧|
口①①口 |-⑨-⑩|
35
口⑥⑦口 |①-②③|
②⑩⑧③ |④⑤⑥⑦|
⑪⑨口⑩ |-⑧-⑨|
④①①⑤ |-⑩-⑪|
36
②口⑥③ |①-②③|
④口口⑤ |④⑤-⑥|
口口口口
口①①口

⑨口口口
口⑦口口
⑩口⑧⑨ |-⑦-⑧|
口口口口 |-⑨-⑩|
37
⑥②口口 |①-②③|
口⑥③口 |④⑤-⑥|
口④口口
口①①⑤

口⑩⑦⑨
⑧口⑪⑦
口⑩口⑨ |-⑦-⑧|
⑧口⑪口 |⑨-⑩⑪|
38
②口③口 |--①-|
口①口口 |②③④⑤|
口口①口
口④口⑤

口口口⑥
⑦⑨⑨口
口口口⑧ |-⑥-⑦|
口口口口 |⑧-⑨-|
39
口①②⑦ |--①②|
⑤⑧⑨⑥ |③④⑤⑥|
口③④口 |-⑦-⑧|
口口口⑩ |⑨-⑩-|
40
口口口口 |--①②|
①口口口 |③-④⑤|
口④⑤②
③口口口

⑥口口口
口⑦⑧口
口口口口 |-⑥-⑦|
⑨口口口 |⑧-⑨-|
41
口②口③ |①---|
②口③口 |②---|
④④口① |③-④-|
④④①口 |----|
42
①①口③ |①---|
口口口口 |----|
口口口口 |②---|
口口②② |--③-|
43
口①②口 |--①②|
⑤口口⑥ |③④⑤⑥|
口口口口
③口口④

⑨⑬⑭⑩
口口口口
口⑪⑫口 |⑦⑧⑨⑩|
口⑦⑧口 |⑪⑫⑬⑭|
44
⑩⑨⑧⑦ |①---|
①口⑫⑪ |----②③④⑤|
⑥口口口 |⑥---|
②③④⑤ |⑦⑧⑨⑩⑪⑫|
45
⑥口⑤口 |①-②-|
⑤①⑦口 |③④-⑤|
③⑤②④ |--⑥-|
③⑧口④ |⑦-⑧-|
46
口④口口 |①②③④|
口③口口 |⑤⑥⑦⑧|
⑧口②⑥
⑦口①⑤

⑯口口⑩
⑮口口⑨
口⑫⑭口 |⑨⑩⑪⑫|
口⑪⑬口 |⑬⑭⑮⑯|
47
口口⑥口 |①②③④|
口口⑤口 |⑤⑥⑦⑧|
④⑧口②
③⑦口①

⑩口口⑨
⑫口口⑪
⑭口口⑬ |⑨⑩⑪⑫|
⑯口口⑮ |⑬⑭⑮⑯|
48
口口①口 |①②③④|
⑧④⑤口 |⑤⑥⑦⑧|
口⑥③⑦
口②口口

⑯⑫口⑨
口⑭口口
口口⑬口 |⑨⑩⑪⑫|
⑩口⑪⑮ |⑬⑭⑮⑯|
49
口口①口 |①---|
口口口① |----|
口口口口
口口口口

口口口口
②口口②
口口口口 |----|
口口口口 |--②-|
50
②⑤②⑤ |①---|
⑥口口⑥ |②-③-|
口②口② |④--⑤|
④①③口 |--⑥-|
51
⑦⑤⑥口 |--①-|
⑤口⑧⑥ |②-③-|
③①②④ |④-⑤-|
①③④② |⑥-⑦⑧|
52
口⑤口② |①-②③|
口③口⑥ |④-⑤⑥|
口口口口
①口口④

⑧口口口
口口口口
口口⑨口 |⑦-⑧-|
⑩⑦口口 |⑨-⑩-|
53
口④⑤① |①-②-|
口②口⑥ |③-④⑤|
⑦④⑤口 |----|
口口口③ |--⑥⑦|
54
②⑤②⑤ |①--②|
⑥口③⑥ |--③-|
口口口口 |④--⑤|
④口口① |--⑥-|
55
⑦⑤⑥口 |--①-|
⑤口⑧⑥ |②-③-|
③①②④ |④-⑤-|
①③④② |⑥-⑦⑧|
56
口⑤⑨② |①-②③|
口③口⑥ |④-⑤⑥|
⑧⑩口口 |⑦-⑧-|
①⑦口④ |⑨-⑩-|
57
③口口口 |①---|
口口④口 |----|
口②②口 |②---|
①口口① |--③④|
58
口⑤⑩② |①-②③|
⑨③口⑥ |④-⑤⑥|
口口⑧口 |⑦-⑧-|
①⑦口④ |⑨-⑩-|
59
①②②① |①---|
口口口② |----|
②口口口 |②---|
口②②口 |----|
60
口口⑥⑤ |①②③④|
①②口⑨ |-⑤⑥⑦|
口口③④ |⑧-⑨-|
⑧⑦口⑨ |----|
61
⑨⑩⑪⑫ |①②③④|
⑤⑥⑦⑧ |⑤⑥⑦⑧|
①②③④ |⑨⑩⑪⑫|
⑬⑭⑮⑯ |⑬⑭⑮⑯|
62
口口口口 |①---|
①口②口 |--②③|
③①口口 |④---|
口口④口 |----|
63
口③④口 |①--②|
③②①④ |---③|
④①②③ |----|
口④③口 |④---|
64
①⑨⑩② |①②③④|
⑪③④⑫ |⑤⑥⑦⑧|
⑬⑤⑥⑭ |⑨⑩⑪⑫|
⑦⑮⑯⑧ |⑬⑭⑮⑯|
65
⑤⑬⑯⑧ |①②③④|
⑨①④⑫ |⑤⑥⑦⑧|
⑪③②⑩ |⑨⑩⑪⑫|
⑦⑮⑭⑥ |⑬⑭⑮⑯|
66
⑤口口⑥ |①②③④|
口①④口 |⑤⑥⑦⑧|
口③②口
⑦口口⑧

口⑬口口
⑨口⑭⑫
⑪⑮口⑩ |⑨⑩⑪⑫|
口口⑯口 |⑬⑭⑮⑯|
67
④⑧②② |①--②|
口③⑨⑤ |--③-|
⑥⑩③口 |④⑤⑥⑦|
①①⑪⑦ |⑧⑨⑩⑪|
68
口口①口 |①---|
口①口口 |----|
口口①口 |----|
口①口口 |----|

不確定度: 0

最終更新:2014年08月20日 22:39