ロストワンの号哭
Neru

EXTREME

Level: 10
BPM: 162
Notes: 930

1
口口口口 |----|
口口口口 |----|
口口口口 |----|
口口口口 |----|
2
②②⑦⑦ |①-②-|
⑩④③⑨ |③④⑤⑥|
⑫⑥⑤⑪ |⑦-⑧-|
⑧⑧①① |⑨⑩⑪⑫|
3
②②⑦口 |①-②-|
口④③口 |③④⑤⑥|
口⑥⑤口 |⑦---|
⑧口①① |⑧---|
4
⑧⑨⑩① |①-②-|
⑥口①⑦ |③④⑤-|
②⑥口① |⑥-⑦-|
口⑤④③ |⑧⑨⑩-|
5
⑧⑨⑩口 |①-②-|
⑥口①⑦ |③④⑤-|
②⑥口① |⑥-⑦-|
口⑤④③ |⑧⑨⑩-|
6
⑧⑨⑩口 |①-②-|
⑥口①⑦ |③④⑤-|
②⑥口① |⑥-⑦-|
口⑤④③ |⑧⑨⑩-|
7
⑦⑧⑨⑥ |①-②-|
⑧口①⑨ |③④⑤-|
②⑦⑥① |⑥-⑦-|
口⑤④③ |⑧-⑨-|
8
⑧⑨⑩口 |①-②-|
⑥口①⑦ |③④⑤-|
②⑥口① |⑥-⑦-|
①⑤④③ |⑧⑨⑩-|
9
⑧⑨⑩口 |①-②-|
⑥口①⑦ |③④⑤-|
②⑥口① |⑥-⑦-|
口⑤④③ |⑧⑨⑩-|
10
⑧⑨⑩口 |①-②-|
⑥口①⑦ |③④⑤-|
②⑥口① |⑥-⑦-|
口⑤④③ |⑧⑨⑩-|
11
⑧口口口 |①-②-|
⑥⑩①⑦ |③④⑤-|
②⑥⑨① |⑥-⑦-|
口⑤④③ |⑧-⑨⑩|
12
⑥④⑤① |①-②③|
口口口口 |-④⑤-|
口口口⑦ |--⑥-|
⑧②③口 |⑦-⑧-|
13
口③口③ |①--②|
口④口口 |--③-|
②口②⑤ |----|
口①口① |--④⑤|
14
⑧⑤④口 |①-②③|
口口口口 |-④⑤-|
口③②⑦ |--⑥-|
⑥①口口 |⑦-⑧-|
15
口口口口 |①--②|
口①口① |--③-|
②口②口
口③口③

口口口口
口⑤口口
口口口④ |----|
口口口口 |--④⑤|
16
⑥④⑤① |①-②③|
口口口口 |-④⑤-|
口口口⑦ |--⑥-|
⑧②③口 |⑦-⑧-|
17
口③口③ |①--②|
口④口口 |--③-|
②口②⑤ |----|
口①口① |--④⑤|
18
⑧⑤④口 |①-②③|
口口口口 |-④⑤-|
口③②⑦ |--⑥-|
⑥①口口 |⑦-⑧-|
19
口口口口 |①--②|
口①口① |--③-|
②口②口
口③口③

⑥口口口
口口口⑤
口口口口 |--④-|
④口口口 |⑤-⑥-|
20
⑧⑨⑩① |①-②-|
⑥口①⑦ |③④⑤-|
②⑥口① |⑥-⑦-|
口⑤④③ |⑧⑨⑩-|
21
⑧⑨⑩口 |①-②-|
⑥口①⑦ |③④⑤-|
②⑥口① |⑥-⑦-|
口⑤④③ |⑧⑨⑩-|
22
⑧⑨⑩口 |①-②-|
⑥口①⑦ |③④⑤-|
②⑥口① |⑥-⑦-|
口⑤④③ |⑧⑨⑩-|
23
⑧口⑧口 |①-②-|
口⑦①⑦ |③④⑤-|
②⑥⑥① |⑥--⑦|
口⑤④③ |--⑧-|
24
⑧⑨⑩① |①-②-|
⑥口①⑦ |③④⑤-|
②⑥口① |⑥-⑦-|
口⑤④③ |⑧⑨⑩-|
25
⑧⑨⑩口 |①-②-|
⑥口①⑦ |③④⑤-|
②⑥口① |⑥-⑦-|
口⑤④③ |⑧⑨⑩-|
26
⑧⑨⑩口 |①-②-|
⑥口①⑦ |③④⑤-|
②⑥口① |⑥-⑦-|
口⑤④③ |⑧⑨⑩-|
27
⑥口⑦口 |①-②-|
⑥⑩①⑦ |③④⑤-|
②⑧⑨① |⑥-⑦-|
⑧⑤④③ |⑧-⑨⑩|
28
⑥④⑤① |①-②③|
口口口口 |-④⑤-|
口口口⑦ |--⑥-|
⑧②③口 |⑦-⑧-|
29
口③口③ |①--②|
口④口口 |--③-|
②口②⑤ |----|
口①口① |--④⑤|
30
⑧⑤④口 |①-②③|
口口口口 |-④⑤-|
口③②⑦ |--⑥-|
⑥①口口 |⑦-⑧-|
31
口口口口 |①--②|
口①口① |--③-|
②口②口
口③口③

口口口口
口⑤口口
口口口④ |----|
口口口口 |--④⑤|
32
⑥④⑤① |①-②③|
口口口口 |-④⑤-|
口口口⑦ |--⑥-|
⑧②③口 |⑦-⑧-|
33
口③口③ |①--②|
口④口口 |--③-|
②口②⑤ |----|
口①口① |--④⑤|
34
⑧⑤④口 |①-②③|
口口口口 |-④⑤-|
口③②⑦ |--⑥-|
⑥①口口 |⑦-⑧-|
35
口口口口 |①--②|
④①④① |--③-|
②口②口 |④---|
⑤③口③ |--⑤-|
36
②③口⑦ |①-②③|
口①口⑥ |--④⑤|
口⑨⑤⑦ |⑥--⑦|
⑧口口④ |--⑧⑨|
37
②口口口 |①--②|
①口口③ |--③④|
②口④口
口口口口

口口⑥⑦
口口口口
⑨口口口 |⑤-⑥⑦|
口⑧口⑤ |--⑧⑨|
38
②③⑦口 |①-②③|
口①⑥口 |--④⑤|
口⑨⑦⑤ |⑥--⑦|
⑧口④口 |--⑧⑨|
39
②口口口 |①--②|
①口口口 |--③④|
②口④口
口口口③

口口⑥⑦
口口口⑤
⑨口口口 |⑤-⑥⑦|
口⑧口口 |--⑧⑨|
40
口②口口 |①--②|
口①口口 |--③④|
口②口④
口口③口

口口⑥口
口口⑤口
口⑧⑥口 |⑤--⑥|
⑦口口口 |--⑦⑧|
41
②口口⑥ |①--②|
①口口⑤ |--③④|
②⑧④⑥ |⑤--⑥|
口口⑦③ |--⑦⑧|
42
②④④口 |①--②|
口口①③ |--③-|
②口⑥口 |--④-|
口⑤口③ |--⑤⑥|
43
口口口② |①--②|
③①口口 |--③-|
口口口②
③口口口

口④④口
口⑤口口
口口口⑥ |--④-|
口口口口 |--⑤⑥|
44
⑤⑥⑧④ |①-②③|
⑥口口⑧ |-④⑤-|
口口口⑦ |--⑥-|
③①⑦② |⑦-⑧-|
45
②口口② |①--②|
口③口口 |--③-|
①③口口
口①口口

口口口口
口口④⑤
⑥口④口 |④---|
口口口口 |--⑤⑥|
46
口④④口 |①-②③|
口口口口 |--④-|
口口口口
口②③①

⑤口口口
口⑤口口
口⑥⑦口 |--⑤-|
⑥口口⑦ |⑥-⑦-|
47
口②②① |①--②|
④⑤①③ |--③-|
④口⑥③ |④---|
口口口口 |--⑤⑥|
48
⑤⑥⑧④ |①-②③|
⑥口口⑧ |-④⑤-|
口口口⑦ |--⑥-|
③①⑦② |⑦-⑧-|
49
②口口② |①--②|
⑤③④口 |--③-|
①③④⑥ |④---|
口①口口 |--⑤⑥|
50
口口口口 |①-②③|
口口④口 |--④-|
口②口口
①口口③

口口口口
口口口口
口口口⑦ |⑤---|
⑥⑤⑤口 |--⑥⑦|
51
口⑤⑤⑤ |①-②③|
①⑥④⑤ |--④-|
口②⑤⑦ |⑤---|
口口⑤③ |--⑥⑦|
52
⑤⑥⑧④ |①-②③|
⑥口口⑧ |-④⑤-|
口口口⑦ |--⑥-|
③①⑦② |⑦-⑧-|
53
②口口② |①--②|
口③口口 |--③-|
①③口口
口①口口

口口口口
口口④⑤
⑥口④口 |④---|
口口口口 |--⑤⑥|
54
口④⑤口 |①-②③|
口口口口 |-④⑤-|
口口口口
口②③①

⑥口口口
口⑥口口
口⑦⑧口 |--⑥-|
⑦口口⑧ |⑦-⑧-|
55
口②②① |①--②|
④⑤①③ |--③-|
④口⑥③ |④---|
口口口口 |--⑤⑥|
56
⑤⑥⑧④ |①-②③|
⑥口口⑧ |-④⑤-|
口口口⑦ |--⑥-|
③①⑦② |⑦-⑧-|
57
②口口② |①--②|
⑤③④口 |--③-|
①③④⑥ |④---|
口①口口 |--⑤⑥|
58
口口口口 |①-②③|
口口④口 |--④-|
口②⑥口 |⑤---|
①⑤⑤③ |--⑥-|
59
②口口③ |①---|
①④④① |②---|
口口口口 |③---|
②口⑤③ |④-⑤-|
60
口⑤④口 |①-②-|
①口口② |----|
①⑤④② |--③-|
口③口口 |④-⑤-|
61
②口口③ |----|
口②③口 |--①-|
口④⑤口 |②-③-|
④口①⑤ |④-⑤-|
62
口口口口 |①-②-|
①口口② |----|
①口口②
口口口口

口口口口
④口口⑤
④口口⑤ |--③-|
口口③口 |④-⑤-|
63
②口口② |----|
③口口③ |--①-|
④口口④ |②--③|
口①口口 |--④-|
64
口⑥⑧口 |①-②-|
⑤口口⑦ |③-④-|
口②④口 |⑤-⑥-|
①口口③ |⑦-⑧-|
65
口口口口 |①-②-|
口②④口 |③-④-|
①口口③
口口口口

口口口口
口⑨口口
口⑥⑧口 |⑤-⑥-|
⑤口口⑦ |⑦-⑧⑨|
66
④口①④ |①-②③|
口口⑥口 |--④-|
②⑦⑧③ |⑤-⑥-|
口⑤⑤口 |⑦-⑧-|
67
④口口口 |①-②-|
③⑧⑦口 |③-④-|
②口⑥⑨ |⑤-⑥-|
①口⑤口 |⑦-⑧⑨|
68
②口口③ |①-②③|
⑤口⑧② |-④⑤-|
⑥⑦⑤口 |--⑥-|
⑧①④⑥ |⑦-⑧-|
69
②①④③ |①-②③|
④⑦⑧④ |--④-|
⑥⑨⑩⑤ |⑤-⑥-|
⑨口⑤口 |⑦⑧⑨⑩|
70
②口口③ |①-②③|
⑤口口② |-④⑤-|
口口口⑤
口①口④

口⑦⑦口
口⑨⑨口
⑦口口口 |⑥-⑦-|
⑨⑧⑥口 |⑧-⑨-|
71
②口④① |①-②③|
④口口① |--④-|
口③③口
口口口口

口口口口
口口口⑦
⑥⑧口口 |⑤-⑥-|
⑦口口⑤ |--⑦⑧|
72
②口③⑥ |①-②③|
⑤⑦②口 |-④⑤-|
⑥口⑧⑤ |--⑥-|
⑧口①④ |⑦-⑧-|
73
②④④口 |①-②③|
④口③③ |--④-|
口口口口
口①口口

口口口口
口⑦⑧口
⑥口口⑤ |⑤-⑥-|
⑦口口⑤ |--⑦⑧|
74
②口口④ |①-②③|
④口口① |--④-|
⑥⑤③⑤ |⑤-⑥-|
⑦口②⑦ |--⑦-|
75
口③③口 |①--②|
③①口③ |--③-|
口口①口
口②②口

⑤口口④
口⑤④口
口④⑤口 |④---|
口口口口 |⑤---|
76
口⑤⑥口 |①②③④|
⑦口口⑧ |--⑤⑥|
①口口② |⑦⑧--|
⑨③④口 |⑨---|
77
⑧⑨⑩① |①-②-|
⑥口①⑦ |③④⑤-|
②⑥口① |⑥-⑦-|
口⑤④③ |⑧⑨⑩-|
78
⑧⑨⑩口 |①-②-|
⑥口①⑦ |③④⑤-|
②⑥口① |⑥-⑦-|
口⑤④③ |⑧⑨⑩-|
79
⑧⑨⑩口 |①-②-|
⑥口①⑦ |③④⑤-|
②⑥口① |⑥-⑦-|
口⑤④③ |⑧⑨⑩-|
80
⑦⑧⑨⑥ |①-②-|
⑧口①⑨ |③④⑤-|
②⑦⑥① |⑥-⑦-|
口⑤④③ |⑧-⑨-|
81
⑧⑨⑩口 |①-②-|
⑥口①⑦ |③④⑤-|
②⑥口① |⑥-⑦-|
①⑤④③ |⑧⑨⑩-|
82
⑧⑨⑩口 |①-②-|
⑥口①⑦ |③④⑤-|
②⑥口① |⑥-⑦-|
口⑤④③ |⑧⑨⑩-|
83
⑧⑨⑩口 |①-②-|
⑥口①⑦ |③④⑤-|
②⑥口① |⑥-⑦-|
口⑤④③ |⑧⑨⑩-|
84
口口⑦③ |①-②-|
⑫②⑤⑨ |③-④-|
⑩⑥①⑪ |⑤⑥⑦⑧|
④⑧口口 |⑨⑩⑪⑫|
85
②②⑦⑦ |①-②-|
⑩④③⑨ |③④⑤⑥|
⑫⑥⑤⑪ |⑦-⑧-|
⑧⑧①① |⑨⑩⑪⑫|
86
②②⑦口 |①-②-|
口④③口 |③④⑤⑥|
口⑥⑤口 |⑦---|
⑧口①① |⑧---|
87
②②⑦⑦ |①-②-|
⑩④③⑨ |③④⑤⑥|
⑫⑥⑤⑪ |⑦-⑧-|
⑧⑧①① |⑨⑩⑪⑫|
88
②②⑦⑦ |①-②-|
口④③口 |③④⑤⑥|
口⑥⑤口 |⑦---|
口口①① |----|

不確定度: 0

最終更新:2014年08月02日 00:31