Endless Chain ~2人でトリガーをひこう~
私立BEMANI学園軽音楽部

ADVANCED

Level: 5
BPM: 162
Notes: 334

BPM: 96
1
口口口口 |----|
口口口口 |----|
口口口口 |----|
口口口口 |----|
2
口口口口 |①-②-|
口①③口 |③-④-|
口④②口
口口口口

口口口口
⑤⑥口口
口口⑦口 |--⑤-|
口口口口 |⑥-⑦-|
3
口口口口 |--①-|
口口②口 |②-③-|
口①口口 |----|
口口③口 |----|
4
口口口⑦ |①-②-|
口口⑥④ |③-④-|
①⑤③口 |--⑤-|
口②口口 |⑥-⑦-|
5
口口口口 |----|
口口口口 |----|
口口口口 |----|
口口口口 |----|
6
①口口① |①---|
口口口口 |----|
口口口口 |----|
口口口口 |----|

BPM: 162
7
口口口口 |----|
口口口口 |----|
口口口口
口口口口
8
②口口② |①---|
口口口口 |--②-|
口口口口
①口口①

口口口口
口③口口
口口④口 |--③-|
⑤口口口 |④-⑤-|
9
口口口口 |--①-|
口口①口 |②-③-|
④②口口 |----|
口口口③ |--④-|
10
口口口口 |①---|
①④口③ |②-③-|
口口⑤② |--④-|
口⑥口口 |⑤-⑥-|
11
口④口口 |①-②-|
口口③口 |③-④-|
口②口口 |----|
口口①口 |----|
12
②口口② |①---|
口口口口 |--②-|
口口口口
①口口①

口口口口
口③口口
口口④口 |--③-|
⑤口口口 |④-⑤-|
13
口口口口 |--①-|
口口①口 |②---|
口②④③ |③-④-|
口口口口 |----|
14
口口口口 |①-②-|
⑦口口口 |③-④-|
①⑤⑥④ |--⑤-|
口③②口 |⑥-⑦-|
15
口④⑤③ |--①-|
⑥②①⑥ |②-③-|
口口口口 |--④-|
口口口口 |⑤-⑥-|
16
口口口口 |----|
口口口口 |----|
口口口口 |----|
口口口口 |----|
17
③口口③ |----|
口口口口 |----|
口②②口 |①-②-|
口①①口 |--③-|
18
③口口③ |--①-|
口口口口 |②---|
①口口口 |----|
口口口② |--③-|
19
口口口口 |--①-|
口口口⑤ |②---|
①口口③ |③-④-|
④口口② |--⑤-|
20
⑤口口⑤ |①---|
①②③口 |②-③-|
口③②口 |--④-|
④口口④ |--⑤-|
21
①口口① |----|
口口口口 |----|
口口口口 |----|
口口口口 |--①-|
22
③口口③ |--①-|
口口口口 |②---|
①口口口 |----|
口口口② |--③-|
23
口口口口 |--①-|
口口口⑤ |②---|
①口口③ |③-④-|
④口口② |--⑤-|
24
口口口口 |①---|
①④口⑤ |②-③-|
口口②口 |--④-|
口③口口 |--⑤-|
25
口口口口 |--①-|
口口口口 |②-③-|
口①口口 |----|
口③②口 |----|
26
口口口口 |----|
口③口口 |----|
口①②口 |--①-|
口口口口 |②-③-|
27
口④③口 |①---|
②口①口 |②---|
口⑤口口 |③--④|
口口口口 |--⑤-|
28
口口口口 |①---|
②口口② |--②-|
口口口口
口口①口

口口口口
口口口口
口口口口 |----|
口③④口 |③-④-|
29
口口口口 |----|
④口口口 |--①-|
口③②① |②-③-|
口口口口 |--④-|
30
口①①口 |①---|
口口口⑤ |--②-|
②③④口 |③-④-|
口口口口 |--⑤-|
31
⑤①①口 |①---|
口口口口 |--②-|
④口③② |③--④|
口口口口 |--⑤-|
32
口①口① |①---|
②口②口 |②---|
口③口③ |③---|
④口④口 |④---|
33
口口口口 |①---|
口③口③ |②---|
②口②口 |③---|
口①口① |----|
34
口口口口 |----|
口口②口 |----|
口①③口 |--①-|
口口口口 |②-③-|
35
口③口口 |①---|
口①④口 |②---|
口⑤口② |③--④|
口口口口 |--⑤-|
36
口口口口 |①---|
②口口② |--②-|
口口①口 |----|
口③④口 |③-④-|
37
口口口口 |----|
④口口口 |--①-|
口口②① |②--③|
③口口口 |--④-|
38
口①①口 |①---|
口口口⑤ |--②-|
②③口口 |③--④|
口口口④ |--⑤-|
39
口①①口 |①---|
口口口口 |----|
口②②口 |②---|
口口口口 |----|
40
口①口① |①---|
②口②口 |②---|
口③口③ |③---|
④口④口 |④---|
41
口口口口 |①---|
口③口③ |②---|
②口②口 |③---|
口①口① |----|
42
①①①① |①---|
口口口口 |----|
口口口口 |----|
口口口口 |----|
43
口口口口 |----|
口口口口 |----|
口口口口 |----|
口口口口 |----|
44
口口口口 |①---|
口口口口 |----|
口口口口 |----|
①①①① |----|
45
口口口口 |----|
口②口口 |----|
口口①口 |--①-|
口口口口 |②---|
46
口口①① |①---|
口口口口 |--②-|
②口口口 |③---|
④口③口 |--④-|
47
口口口口 |①-②-|
口③②口 |③-④-|
口①④⑥ |--⑤-|
⑤口口口 |--⑥-|
48
口口口口 |①---|
口口①口 |--②-|
口口口口
口②口口

口口口口
口④⑤口
口⑥③口 |③-④-|
口口口口 |⑤-⑥-|
49
②②②② |①---|
口口口口 |--②-|
口口口口 |----|
①口口① |----|
50
③口口② |①---|
口口口口 |--②-|
口口④口 |--③-|
①口口口 |--④-|
51
口口口口 |--①-|
口口②口 |②-③-|
口①口口 |----|
③口口④ |--④-|
52
口②③口 |--①-|
口口①口 |②-③-|
口④口口 |--④-|
口口⑤口 |⑤---|
53
④口口④ |①-②-|
⑤③口⑤ |③-④-|
口口②口 |--⑤-|
①口口口 |----|
54
②口口③ |①---|
口口口口 |--②-|
口④口口 |--③-|
口口口① |--④-|
55
口口口口 |--①-|
口②口口 |②-③-|
口口①口 |----|
口口口③ |----|
56
⑦⑤口⑦ |①-②-|
①口⑥④ |③-④-|
口③②口 |--⑤-|
口口口口 |⑥-⑦-|
57
口口口口 |----|
口②③口 |①---|
口③②口 |②---|
①口口① |③---|
58
②口口② |①---|
口口口口 |--②-|
口口口口
①口口①

口口口口
口③口口
口口④口 |--③-|
⑤口口口 |④-⑤-|
59
口口口口 |--①-|
口口①口 |②-③-|
④②口口 |----|
口口口③ |--④-|
60
口口口口 |①---|
①④口③ |②-③-|
口口⑤② |--④-|
口⑥口口 |⑤-⑥-|
61
④口口④ |①-②-|
口口③口 |③-④-|
口②口口 |----|
口口①口 |----|
62
②口口② |①---|
口口口口 |--②-|
口口口口
①口口①

口口口口
口③口口
口口④口 |--③-|
⑤口口口 |④-⑤-|
63
口口口口 |--①-|
口口①口 |②---|
口②④③ |③-④-|
口口口口 |----|
64
口口口口 |①-②-|
⑦口口口 |③-④-|
①⑤⑥④ |--⑤-|
口③②口 |⑥-⑦-|
65
口口口口 |----|
口口口口 |----|
口口口口 |----|
口口口口 |----|
66
口口口口 |①-②-|
⑦口口口 |③-④-|
①⑤⑥④ |--⑤-|
口③②口 |⑥-⑦-|
67
口口口③ |--①-|
口②①口 |②-③-|
口口口口 |----|
口口口口 |----|
68
⑦⑦⑦⑦ |①-②-|
①⑤⑥④ |③-④-|
口③②口 |--⑤-|
口口口口 |⑥-⑦-|
69
口口口口 |----|
口口口口 |----|
口口口口 |----|
口口口口 |----|
70
口口口口 |----|
口口口口 |----|
口口口口 |----|
口口口口 |----|
71
④④④④ |①-②-|
①口口② |③-④-|
口③③口 |----|
口口口口 |----|


不確定度: 0

最終更新:2013年12月03日 22:32