Endless Chain ~2人でトリガーをひこう~
私立BEMANI学園軽音楽部

EXTREME

Level: 8
BPM: 162
Notes: 587

BPM: 96
1
口口口口 |----|
口口口口 |----|
口口口口 |----|
口口口口 |----|
2
①③口⑤ |①-②-|
口②⑥口 |③-④-|
口⑦④口 |--⑤-|
口口口口 |⑥-⑦-|
3
口口口口 |--①-|
口口②口 |②-③-|
口口口① |----|
口③口口 |----|
4
⑦口口④ |①-②-|
①⑥③口 |③-④-|
⑦②⑤④ |--⑤-|
①口口口 |⑥-⑦-|
5
口口口口 |--①-|
口口口③ |②-③-|
口口②口 |----|
口①口口 |----|
6
①口口① |①---|
口口口口 |----|
口口口口 |----|
口口口口 |----|

BPM: 162
7
口口口口 |--①②|
口口口③ |③---|
口①②口
口口口口
8
口③④口 |①-②-|
口④③口 |③-④-|
①口口②
口①②口

口口口⑤
口口口⑥
口口口⑦ |--⑤-|
口口口口 |⑥-⑦-|
9
②口①口 |--①-|
口①口口 |②-③-|
①口②口 |----|
④③④③ |--④-|
10
口口④口 |①-②-|
②③③① |③-④-|
口①②④
口口口口

⑤口口⑥
⑦口口口
⑤⑥⑦口 |--⑤-|
口口口口 |⑥-⑦-|
11
口③③口 |①-②-|
口①①② |③-④-|
口口口② |----|
④口口④ |----|
12
口④③口 |①-②-|
口③④口 |③-④-|
②口口①
口②①口

口口口⑤
口口口⑥
口口口⑦ |--⑤-|
口口口口 |⑥-⑦-|
13
口④④口 |--①-|
口①②口 |②---|
口②①口 |③-④-|
③口口③ |----|
14
⑦④④⑦ |①-②-|
①口口③ |③-④-|
⑥③①⑥ |--⑤-|
⑤②②⑤ |⑥-⑦-|
15
⑥③③⑥ |--①-|
①⑥⑥① |②-③-|
⑥④④⑥ |--④-|
⑤②②⑤ |⑤-⑥-|
16
③口口口 |----|
口口口口 |----|
口口口② |--①-|
①口口口 |②-③-|
17
③口口口 |----|
口口③口 |----|
②口口② |①-②-|
①口口① |--③-|
18
③口口① |--①-|
口①③口 |②---|
口口口口 |----|
②口口② |--③-|
19
口④③① |--①-|
③①口④ |②---|
口口口口 |③-④-|
②⑤⑤② |--⑤-|
20
①⑤⑤① |①---|
⑤②③⑤ |②-③-|
口口口口 |--④-|
③④④② |--⑤-|
21
①口口口 |----|
口口①口 |----|
口口口口 |----|
口口口口 |--①-|
22
③口口① |--①-|
口①③口 |②---|
口口口口 |----|
②口口② |--③-|
23
口④③① |--①-|
③①口④ |②---|
口口口口 |③-④-|
②⑤⑤② |--⑤-|
24
①口口① |①---|
口②③口 |②-③-|
⑤口口⑤ |--④-|
③④④② |--⑤-|
25
②①①② |--①-|
③⑥口③ |②-③-|
口⑤口口 |--④-|
口④口口 |⑤-⑥-|
26
口口口口 |①---|
口口口口 |----|
②③④口 |--②-|
①口口① |③-④-|
27
口②③① |①---|
④口口口 |②---|
口口⑤口 |③--④|
口口口口 |--⑤-|
28
口口②口 |①---|
口口口② |--②-|
口①口口
口口口口

口口口口
口口口口
③③口口 |----|
④④口口 |③-④-|
29
口口口口 |----|
口④④口 |--①-|
口②口口 |②-③-|
口口③① |--④-|
30
口①①口 |①---|
①⑤⑤口 |--②-|
口口③口 |③-④-|
②④口口 |--⑤-|
31
口①①口 |①---|
口⑤⑤① |--②-|
口③口④ |③--④|
口口口② |--⑤-|
32
口①①口 |①---|
①④④② |②---|
③②②④ |③---|
口③③口 |④---|
33
口④③口 |①-②-|
口口口口 |③-④-|
口②①口
口口口口

口口口口
口口⑦口
口口⑥口 |--⑤-|
口口⑤口 |⑥-⑦-|
34
口口口口 |①---|
口口口口 |----|
口④③② |--②-|
①口口① |③-④-|
35
①③②口 |①---|
口口口④ |②---|
口⑤口口 |③--④|
口口口口 |--⑤-|
36
口②口口 |①---|
②口口口 |--②-|
口口①口
口口口口

口口口口
口口口口
口口③③ |----|
口口④④ |③-④-|
37
口口口口 |----|
口④④口 |--①-|
③口②口 |②--③|
①口口口 |--④-|
38
口①①口 |①---|
口⑤⑤① |--②-|
口③口④ |③--④|
口口口② |--⑤-|
39
口①①口 |①---|
①口口口 |--②-|
口②②口 |③---|
口③③口 |----|
40
口①①口 |①---|
②④④① |②---|
④②②③ |③---|
口③③口 |④---|
41
口③③口 |①-②-|
口口口口 |--③-|
口①②口 |----|
口口口口 |----|
42
口口口口 |①-②-|
口口口口 |③-④-|
①④④①
②③③②

口⑤⑤口
口⑥⑥口
⑦口口⑦ |--⑤-|
口口口口 |⑥-⑦-|
43
①④④① |--①-|
口③口② |--②-|
③口②口 |--③-|
口口口口 |④---|
44
⑥④④⑥ |①-②-|
口⑤⑤口 |③---|
口③③口 |--④-|
①②②① |⑤-⑥-|
45
口口口口 |--①-|
口口⑤口 |②-③-|
①④口① |--④-|
②③③② |⑤---|
46
④①①口 |①---|
①④口① |--②-|
口②②口 |③---|
口③③口 |--④-|
47
口④④① |①-②-|
口口①口 |③-④-|
③口口②
口口口口

口口口口
口⑥⑥口
口口口口 |--⑤-|
口⑤⑤口 |--⑥-|
48
①口口① |①---|
②口口口 |--②-|
①口口①
口口②口

口口口口
口⑤⑤③
⑥口口⑥ |③-④-|
④③口④ |⑤-⑥-|
49
③②②③ |①-②-|
⑤口口⑤ |③-④-|
口①①口 |----|
④④④④ |⑤---|
50
⑤③口④ |①-②-|
口⑥②口 |③-④-|
口①⑦口 |--⑤-|
口口口口 |⑥-⑦-|
51
口口口口 |--①-|
口口②口 |②-③-|
口①④口 |----|
③口口口 |--④-|
52
口④口③ |①-②-|
口②口① |③-④-|
⑤口口口 |--⑤-|
口口⑥口 |⑥---|
53
④口口④ |①-②-|
口③口口 |③-④-|
口口②口 |--⑤-|
⑤①口⑤ |----|
54
口④口口 |①-②-|
口口③⑤ |③-④-|
⑥②口口 |--⑤-|
口口①口 |--⑥-|
55
口口口口 |--①-|
口②口口 |②-③-|
口口①口 |----|
口③口口 |----|
56
④④④④ |①-②-|
口口③③ |③-④-|
①⑦⑦② |--⑤-|
⑤口口⑥ |⑥-⑦-|
57
⑤口口⑤ |①-②-|
②口口① |③-④-|
③口口④ |⑤---|
⑥口口⑥ |⑥---|
58
口③④口 |①-②-|
口④③口 |③-④-|
①口口②
口①②口

口口口⑤
口口口⑥
口口口⑦ |--⑤-|
口口口口 |⑥-⑦-|
59
②⑤①口 |--①-|
口①口口 |②-③-|
①口②④ |--④-|
⑥③⑥③ |⑤-⑥-|
60
口口④口 |①-②-|
②③③① |③-④-|
口①②④
口口口口

⑤口口⑥
⑦口口口
⑤⑥⑦口 |--⑤-|
口口口口 |⑥-⑦-|
61
口③③⑥ |①-②-|
口①①② |③-④-|
口⑤口② |--⑤-|
④口口④ |⑥---|
62
口④③口 |①-②-|
口③④口 |③-④-|
②口口①
口②①口

口口口⑤
口口口⑥
口口口⑦ |--⑤-|
口口口口 |⑥-⑦-|
63
口④④口 |--①-|
口①②口 |②---|
口②①口 |③-④-|
③口口③ |----|
64
⑦④④⑦ |①-②-|
①⑦⑦③ |③-④-|
⑥③①⑥ |--⑤-|
⑤②②⑤ |⑥-⑦-|
65
口口口口 |----|
口口口口 |----|
④口口① |①-②-|
口③②口 |③-④-|
66
口①①④ |①-②-|
②口③口 |③-④-|
口③口④
②口口口

口口⑦口
口⑦口⑤
⑤口⑥口 |--⑤-|
口⑥口口 |⑥-⑦-|
67
④③口④ |--①-|
①口③口 |②-③-|
口②口① |④---|
口口②口 |----|
68
口④④口 |①-②-|
④②②④ |③-④-|
①口口①
口③③口

⑦口口⑦
口⑦⑦口
⑦⑤⑤⑦ |--⑤-|
⑥口口⑥ |⑥-⑦-|
69
口口口③ |----|
口口②口 |----|
口①口口 |--①-|
口口口口 |②-③-|
70
口①口口 |----|
口口口口 |①---|
口③口② |②---|
口口口口 |③---|
71
④口②④ |①-②-|
口①口② |③-④-|
②口①口 |----|
③②口③ |----|


不確定度: 0

最終更新:2013年12月03日 22:32