True Blue
dj TAKA feat.AiMEE

まっする's EDIT

Level: 10
BPM: 164
Notes: 878

1
口口口口 |----|
口口口口 |----|
口口口口 |----|
口口口口 |----|
2
口口口口 |①---|
口②口口 |----|
口①①口 |②---|
口口口口 |----|
3
①口口① |①---|
口口口口 |②-③-|
口②③口
口口口口

⑤口口⑤
口口口口
口口口口 |--④-|
④口口④ |--⑤-|
4
口口口口 |----|
口口①① |----|
口口②② |----|
口口口口 |①-②-|
5
口口口口 |----|
口口口口 |----|
②②口口 |①---|
①①口口 |②---|
6
口口口口 |①---|
①①③口 |----|
口②口口 |--②-|
口口口口 |③---|
7
口④④口 |①---|
①口口① |②---|
②口口② |③---|
口③③口 |④---|
8
①口口① |①---|
①②②① |--②-|
口口口口
口口口口

④口口④
口口口口
口口口口 |----|
③口口③ |③-④-|
9
③口口③ |----|
口口口口 |①---|
口②②口 |②---|
口①①口 |③---|
10
⑦口口⑦ |①-②-|
口口口口 |③-④-|
①⑤⑤② |--⑤-|
③⑥⑥④ |⑥-⑦-|
11
口口口口 |----|
口口①② |---①|
口口口口 |②---|
口口口口 |----|
12
⑥口口⑥ |①-②-|
③口口④ |③-④-|
①③④② |--⑤-|
⑤①②⑤ |--⑥-|
13
口口口口 |--①-|
口口口口 |②---|
①④④① |③---|
③②②③ |④---|
14
口①②口 |①-②-|
①③④② |③-④-|
③口口④
口口口口

口⑦⑦口
口口口口
口口口口 |--⑤-|
⑤⑥⑥⑤ |⑥-⑦-|
15
①口口① |----|
口②②口 |----|
口口口口 |①---|
口③③口 |②-③-|
16
口口④口 |①-②③|
②口口③ |-④-⑤|
①①①①
⑤口口口

⑦口口⑧
口口口⑩
口口口口 |⑥-⑦⑧|
口口⑨⑥ |-⑨-⑩|
17
口口④⑤ |①-②③|
口口③口 |-④-⑤|
口②口口
口①口口

口口口口
⑦⑥口⑧
口口口口 |⑥-⑦-|
⑨⑨⑨⑨ |⑧-⑨-|
18
口②⑤④ |①-②③|
口口③口 |-④-⑤|
①①①①
口口口口

口口口口
口⑥⑩口
口口口口 |⑥-⑦⑧|
口⑦⑧⑨ |-⑨-⑩|
19
口口④口 |①-②③|
②口口③ |-④-⑤|
口①口⑤
口口口口

⑦口口口
口口口口
⑥⑧口口 |⑥-⑦-|
⑨⑨⑨⑨ |⑧-⑨-|
20
⑥②④⑤ |①-②③|
①①①① |-④-⑤|
⑧⑦③口 |⑥-⑦-|
⑨⑨⑨⑨ |⑧-⑨-|
21
口②③口 |①-②③|
①①①① |-④-⑤|
口口④⑤
口口口口

口口口口
⑧口口口
⑥⑦口口 |⑥-⑦-|
⑨⑨⑨⑨ |⑧-⑨-|
22
①①①① |①-②-|
口③⑧④ |③-④-|
⑤口②⑥ |⑤-⑥-|
口⑦口口 |⑦-⑧-|
23
口③⑥口 |①②③④|
①口口④ |⑤⑥⑦⑧|
⑦⑤口⑧
口口②口

口口口⑫
⑬⑨⑯口
口口⑭口 |⑨⑩⑪⑫|
⑪⑮口⑩ |⑬⑭⑮⑯|
24
口①口口 |----|
⑥④口⑦ |----|
口口⑤③ |①-②③|
②口口口 |④⑤⑥⑦|
25
⑤口口口 |①②③④|
口口②口 |⑤--⑥|
③口口口
⑥①口④

口⑧口⑦
⑩口⑬口
口⑫口⑪ |⑦⑧⑨-|
口口⑨口 |⑩⑪⑫⑬|
26
⑨⑦口⑥ |①②③④|
口③口④ |⑤--⑥|
①⑫⑧⑬ |⑦⑧⑨-|
⑩⑤⑪② |⑩⑪⑫⑬|
27
口⑤口⑥ |①②③④|
①⑦②口 |⑤⑥⑦⑧|
口口⑧口
口③口④

⑬口⑫口
⑮口口⑩
⑨⑪口⑭ |⑨⑩⑪⑫|
口口⑯口 |⑬⑭⑮⑯|
28
口①口口 |①②③④|
口⑤④⑧ |⑤⑥⑦⑧|
⑦口⑥口
③口口②

⑨⑮口⑩
⑬口口口
口⑪口⑫ |⑨⑩⑪⑫|
口口⑭⑯ |⑬⑭⑮⑯|
29
⑥口口口 |①②③④|
口③②⑦ |⑤-⑥⑦|
口口④口
⑤①口口

口⑩口口
⑬口⑫口
口⑧⑭⑨ |⑧⑨⑩-|
口⑪口口 |⑪⑫⑬⑭|
30
⑤口⑧② |①②③④|
口①口⑥ |⑤⑥⑦⑧|
③⑦口口
口口口④

口⑮口口
⑪口⑫口
口口⑭⑩ |⑨⑩⑪⑫|
⑨⑬口⑯ |⑬⑭⑮⑯|
31
⑤口⑧口 |①②③④|
口③口② |⑤⑥⑦⑧|
①⑦口⑥
口口④口

口⑬口⑭
⑨口⑩⑯
⑮口口口 |⑨⑩⑪⑫|
口⑪口⑫ |⑬⑭⑮⑯|
32
③⑨⑥⑭ |①②③④|
⑦①⑩⑯ |⑤⑥⑦⑧|
⑪⑤②④ |⑨⑩⑪⑫|
⑬⑮⑧⑫ |⑬⑭⑮⑯|
33
口口口口 |①---|
口口口口 |----|
口①①口
口口口口

②口口口
口口口口
口口④② |②-③-|
口口⑤③ |④-⑤-|
34
⑥口③① |①-②-|
③④④② |③-④-|
口口⑦⑤ |⑤-⑥-|
①口⑧⑥ |⑦-⑧-|
35
⑧口③① |①-②-|
④③④② |③-④-|
口口⑦⑤ |⑤-⑥-|
①⑥⑧⑥ |⑦-⑧-|
36
口③③① |①-②-|
口口④② |③-④-|
⑦⑤⑦⑤ |⑤-⑥-|
口口⑧⑥ |⑦-⑧-|
37
口③③① |①-②-|
口口④② |③-④-|
⑦⑤⑦⑤ |⑤-⑥-|
口口⑧⑥ |⑦-⑧-|
38
①口③① |①-②-|
口④④② |③-④-|
口⑦⑦⑤ |⑤-⑥-|
口口⑧⑥ |⑦-⑧-|
39
①③③① |①-②-|
口④④② |③-④-|
口口⑦⑤ |⑤-⑥-|
口口⑧⑥ |⑦-⑧-|
40
⑤口④② |①②③④|
①口口口 |⑤-⑥⑦|
口③口口
⑥口口⑦

口口口⑮
口⑧⑬⑪
⑩⑭⑨口 |⑧⑨⑩⑪|
口⑫口口 |⑫⑬⑭⑮|
41
口①①口 |①---|
口口口口 |----|
⑤口④④ |②-③-|
口②②③ |④-⑤-|
42
④③③③ |①-②-|
口①①② |③-④-|
⑧口⑦⑦ |⑤-⑥-|
⑥口⑤⑥ |⑦-⑧-|
43
④③③③ |①-②-|
口①①② |③-④-|
⑧口⑦⑦ |⑤-⑥-|
⑥口⑤⑥ |⑦-⑧-|
44
④③③③ |①-②-|
口口①② |③-④-|
⑧⑦⑦⑦ |⑤-⑥-|
口⑤⑤⑥ |⑦-⑧-|
45
④③③③ |①-②-|
口口①② |③-④-|
⑧⑦⑦⑦ |⑤-⑥-|
口⑤⑤⑥ |⑦-⑧-|
46
④口③③ |①-②-|
口①①② |③-④-|
⑧⑦⑦⑦ |⑤-⑥-|
口口⑤⑥ |⑦-⑧-|
47
④③③③ |①-②-|
口①①② |③-④-|
⑧口⑦⑦ |⑤-⑥-|
口口⑤⑥ |⑦-⑧-|
48
④口③③ |①-②-|
口口①② |③-④-|
⑧⑦⑦⑦ |⑤-⑥-|
⑥⑤⑤⑥ |⑦-⑧-|
49
③口口③ |①---|
口①①口 |②-③-|
口④④口 |--④-|
⑤②②⑤ |--⑤-|
50
口①①口 |①---|
口口口口 |--②-|
③口口③ |----|
口②②口 |③---|
51
②口口② |①---|
口口口口 |--②-|
口①①口 |----|
口口口口 |----|
52
口口口口 |----|
口口口口 |----|
口口口口 |----|
口口口口 |----|
53
口①口口 |①---|
①⑤②口 |②-③-|
口②⑤口 |----|
④口口③ |④-⑤-|
54
口口①口 |①---|
口口口① |--②-|
③口口③ |----|
口②②口 |③---|
55
③⑤⑤③ |①---|
口①①口 |②-③-|
口口口口 |--④-|
②④④② |--⑤-|
56
口口口口 |----|
③口口③ |①---|
②口口② |②---|
①口口① |③---|
57
①口口① |①---|
口口口口 |②-③-|
口②③口
口口口口

⑤⑤⑤⑤
口口口口
口口口口 |--④-|
口④④口 |--⑤-|
58
口口口口 |--①-|
口口口口 |--②-|
①②③④ |--③-|
口口口口 |--④-|
59
①③口口 |①-②-|
②④⑤⑥ |③-④-|
口口口口 |--⑤-|
口口口口 |--⑥-|
60
②④⑥口 |--①-|
口口口口 |②-③-|
口口口口 |④-⑤-|
①③⑤⑦ |⑥-⑦-|
61
口口口① |①---|
口③③① |②-③-|
口②②口 |④---|
口口④⑤ |⑤---|
62
口口口口 |①---|
⑧③口口 |②--③|
口②⑤⑦ |④-⑤-|
①④口⑥ |⑥⑦-⑧|
63
口口口口 |①-②-|
口口④口 |③-④⑤|
⑨②⑤⑦ |⑥-⑦-|
①③⑥⑧ |⑧-⑨-|
64
⑨①②⑩ |①②③④|
⑪③④⑫ |⑤⑥⑦⑧|
⑬⑤⑥⑭ |⑨⑩⑪⑫|
⑮⑦⑧⑯ |⑬⑭⑮⑯|
65
口⑥②口 |①②③④|
口③口⑦ |⑤-⑥⑦|
口①④口
口⑤口口

⑫口口⑬
⑩口⑨口
⑧⑭口⑮ |⑧⑨⑩⑪|
口口口⑪ |⑫⑬⑭⑮|
66
口口④口 |①②③④|
⑦①⑧口 |⑤⑥⑦⑧|
⑤口②口
③口⑥口

口⑪口口
口⑮口⑩
口⑬⑯⑭ |⑨⑩⑪⑫|
口⑨口⑫ |⑬⑭⑮⑯|
67
⑥口口② |①②③④|
③口口⑦ |⑤-⑥⑦|
①口口口
⑤口④口

口⑧口⑮
口⑭⑪口
⑫⑩口⑨ |⑧⑨⑩⑪|
口口口⑬ |⑫⑬⑭⑮|
68
②⑦口口 |①-②③|
⑪⑩口⑥ |④-⑤⑥|
⑧⑤③⑫ |⑦-⑧⑨|
①④口⑨ |⑩-⑪⑫|
69
口⑤④口 |①②③④|
口口②⑧ |⑤⑥⑦⑧|
⑦③口口
口①⑥口

⑪口口⑭
⑬⑨⑯口
口⑮⑩⑫ |⑨⑩⑪⑫|
口口口口 |⑬⑭⑮⑯|
70
口口④口 |①②③④|
口⑤口口 |⑤-⑥-|
③口口口
①⑥口②

⑬⑦口口
⑨口⑩⑫
口⑪口⑧ |⑦⑧⑨⑩|
口口口⑭ |⑪⑫⑬⑭|
71
口⑤口④ |①②③④|
口③口口 |⑤-⑥⑦|
①口②⑦
口⑥口口

⑫口口口
⑧口⑨⑪
⑬⑩口口 |⑧⑨⑩⑪|
口口⑭口 |⑫-⑬⑭|
72
口③口⑥ |①②③④|
⑤①⑧口 |⑤⑥⑦⑧|
口⑦②④
口口口口

⑨口⑯口
口⑬口⑩
⑪口⑭口 |⑨⑩⑪⑫|
口⑮口⑫ |⑬⑭⑮⑯|
73
④②口口 |①-②③|
口口⑥口 |④-⑤⑥|
口⑤口③
①口口口

口⑬口⑩
⑦⑨口⑭
⑪口口口 |⑦⑧⑨⑩|
口口⑫⑧ |⑪⑫⑬⑭|
74
口口④口 |①②③④|
⑤⑦⑧口 |⑤⑥⑦⑧|
口③⑥②
口①口口

⑨口口⑫
口口口⑭
⑪⑮口⑯ |⑨⑩⑪⑫|
口⑬口⑩ |⑬⑭⑮⑯|
75
⑤口④口 |①②③④|
①③⑦口 |⑤-⑥⑦|
口口②口
⑥口口口

口⑫口口
⑭口口⑪
⑧⑩⑮⑬ |⑧⑨⑩⑪|
口口⑨口 |⑫⑬⑭⑮|
76
①口口口 |①-②③|
口④⑥口 |④-⑤⑥|
口口口口
②⑤口③

口⑧口口
⑩口口⑫
口⑦口⑨ |⑦-⑧⑨|
⑪口口口 |⑩-⑪⑫|
77
口⑦口④ |①②③④|
口①⑥口 |⑤⑥⑦⑧|
③⑤②口
口口⑧口

口口⑫口
⑨⑬口⑭
⑮口口⑩ |⑨⑩⑪⑫|
口⑪口⑯ |⑬⑭⑮⑯|
78
口③口口 |①②③④|
⑤口②口 |⑤-⑥-|
口①④口
口⑥口口

⑦口口⑩
口⑨⑭口
⑪⑬口⑧ |⑦⑧⑨⑩|
口口口⑫ |⑪⑫⑬⑭|
79
④①口口 |①-②③|
口口口口 |④-⑤⑥|
口口口⑥
②⑤③口

口口口⑩
⑦⑨口⑫
⑬⑪⑧口 |⑦⑧⑨⑩|
口口⑭口 |⑪⑫⑬⑭|
80
口①④口 |①②③④|
⑤⑦②口 |⑤⑥⑦⑧|
口口⑧口
口③口⑥

口口口口
口口⑯⑫
⑪⑨口⑩ |⑨⑩⑪⑫|
⑬⑮⑭口 |⑬⑭⑮⑯|
81
①①①① |①---|
口口口口 |----|
口口口口 |----|
口口口口 |----|

不確定度: 0

最終更新:2013年11月23日 00:03