†渚の小悪魔ラヴリィ~レイディオ†
夏色ビキニのPrim

RAG's EDIT

Level: 10
BPM: 190
Notes: 818

1
口口口口 |----|
口口口口 |----|
口口口口 |----|
口口口口 |----|
2
①①口口 |①---|
①④口口 |②---|
口口②③ |③---|
口口③③ |④---|
3
②口⑤① |①-②-|
口口⑤⑤ |③-④-|
⑤⑤口口 |⑤---|
③⑤口④ |----|
4
①①口口 |①---|
①④口口 |②---|
口口②③ |③---|
口口③③ |④---|
5
①口①② |①---|
①③①口 |----|
口①口④ |②-③-|
⑤口口口 |④-⑤-|
6
口⑧口⑦ |①-②-|
④口③口 |③-④-|
⑥口⑤口 |⑤-⑥-|
口②口① |⑦-⑧-|
7
⑦口⑧口 |①-②-|
口③口④ |③-④-|
口⑤口⑥ |⑤-⑥-|
①口②口 |⑦-⑧-|
8
⑧口⑦口 |①-②-|
口④口③ |③-④-|
⑥口⑤口 |⑤-⑥-|
口②口① |⑦-⑧-|
9
口③⑦④ |①-②-|
③⑤①⑦ |③-④-|
⑦②⑥③ |⑤-⑥-|
⑧⑦③口 |⑦-⑧-|
10
口⑥口⑤ |①-②-|
②口①口 |③-④-|
口④口③ |⑤-⑥-|
⑧口⑦口 |⑦-⑧-|
11
⑤口⑥口 |①-②-|
①口②口 |③-④-|
口⑦口⑧ |⑤-⑥-|
口③口④ |⑦-⑧-|
12
口②口① |①-②-|
⑥口⑤口 |③-④-|
④口③口 |⑤-⑥-|
口⑧口⑦ |⑦-⑧-|
13
③⑤①⑤ |①-②-|
⑤②④① |③-④-|
⑦⑥⑦③ |⑤-⑥-|
①⑧③⑦ |⑦-⑧-|
14
⑥口⑤口 |①-②-|
口②口① |③-④-|
口⑧口⑦ |⑤-⑥-|
④口③口 |⑦-⑧-|
15
口①口② |①-②-|
口⑤口⑥ |③-④-|
③口④口 |⑤-⑥-|
⑦口⑧口 |⑦-⑧-|
16
口①口③ |①-②-|
⑤口⑦口 |③-④-|
口②口④ |⑤-⑥-|
⑥口⑧口 |⑦-⑧-|
17
⑦③③⑦ |①-②-|
口①口⑤ |③-④-|
口②口⑥ |⑤-⑥-|
口④口⑧ |⑦-⑧-|
18
口⑤口⑥ |①-②-|
①口②口 |③-④-|
口⑦口⑧ |⑤-⑥-|
③口④口 |⑦-⑧-|
19
⑥口①⑤ |①-②-|
口②⑦① |③-④-|
①⑧口口 |⑤-⑥-|
④①口③ |⑦-⑧-|
20
⑦①口④ |①-②-|
①③⑧口 |③-④-|
口口②① |⑤-⑥-|
⑤口①⑥ |⑦-⑧-|
21
口③②③ |①-②-|
①⑥口② |③-④-|
①④④⑤ |⑤---|
口口⑤⑤ |⑥---|
22
③⑦口② |①-②-|
口口⑥口 |③-④-|
口⑤口⑧ |⑤-⑥-|
①①口④ |⑦-⑧-|
23
口口口口 |①-②-|
③口口② |③-④-|
①④口口
①口④口

⑥口口⑤
口⑦⑦口
⑧口口口 |⑤-⑥-|
口口口口 |⑦-⑧-|
24
⑥②①口 |①-②-|
口⑥口⑤ |③-④-|
⑧④①③ |⑤-⑥-|
④⑧③⑦ |⑦-⑧-|
25
⑥口①⑤ |①-②-|
②口①口 |③-④-|
口④③⑦ |⑤-⑥-|
⑧口口口 |⑦-⑧-|
26
口⑥②口 |①-②-|
口⑧④口 |③-④-|
⑤口口口 |⑤-⑥-|
口⑦③① |⑦-⑧-|
27
⑦⑥⑥② |①-②-|
口口口④ |③-④-|
⑤口①⑤ |⑤--⑥|
口口⑦③ |--⑦-|
28
口口口① |①-②-|
④②③口 |③-④-|
口口口口
口①口口

口口口口
口口口⑥
口口口口 |⑤-⑥-|
⑤⑧口⑦ |⑦-⑧-|
29
①③③① |①-②-|
⑦⑤⑤⑦ |③-④-|
口口口④ |⑤-⑥-|
⑥口②⑧ |⑦-⑧-|
30
①口④④ |①-②-|
口口口口 |③-④-|
③①②口
口③口口

口⑤口口
⑦口⑧⑥
口⑧口⑥ |⑤-⑥-|
口口口口 |⑦-⑧-|
31
⑤④④⑧ |①-②-|
口①⑧口 |③-④-|
口⑦⑥⑥ |⑤-⑥-|
③口②② |⑦-⑧-|
32
口口④⑧ |①-②-|
①⑤⑧④ |③-④-|
①⑥口⑥ |⑤-⑥-|
③⑦③② |⑦-⑧-|
33
①①口口 |①---|
①④口口 |②---|
口口②③ |③---|
口口③③ |④---|
34
⑥口①③ |①-②-|
口⑧⑦① |③-④-|
①②口口 |⑤-⑥-|
④①口⑤ |⑦-⑧-|
35
口①口③ |①-②-|
①口口口 |③-④-|
口②口①
④口①口

⑥口口口
⑧口⑦口
口口口口 |⑤-⑥-|
口口口⑤ |⑦-⑧-|
36
⑥②①口 |①-②-|
口口⑦① |③-④-|
①④③口 |⑤-⑥-|
⑧①⑤口 |⑦-⑧-|
37
口口口① |①-②-|
②⑥口⑤ |③-④-|
⑧口⑦口 |⑤-⑥-|
口④口③ |⑦-⑧-|
38
①⑥①⑥ |①-②-|
④口④口 |③-④-|
口③口③ |----|
②⑤②⑤ |⑤-⑥-|
39
②④②④ |①-②-|
口①③① |----|
③③③口 |③---|
③口③口 |④---|
40
①口口口 |①---|
①①②口 |----|
口口②② |----|
口口②口 |②---|
41
口口口口 |----|
①②③④ |----|
口口口口 |----①-|
口口口口 |②-③-④-|
42
口⑧⑨口 |①-②-③-|
口⑩⑪口 |④-⑤-⑥-|
①②③④ |⑦---⑧-|
口⑤⑥⑦ |⑨-⑩-⑪-|
43
①⑤口口 |①-②---|
口口口口 |③-④---|
②口口② |----⑤-|
⑥③④口 |--⑥---|
44
口口口口 |①---②-|
②口②① |----|
②②②口
口②口口

口③④口
口⑤口口
口口口⑥ |③-④-⑤-|
口口⑦口 |⑥---⑦-|
45
④口口口 |①---|
口口口口 |②-③-④-|
口②③口
口①口口

口口口⑤
口⑥⑦口
口口口口 |⑤-⑥-⑦-|
⑧⑩口⑨ |⑧-⑨-⑩-|
46
口⑧⑨口 |①-②-③-|
②口口③ |④-⑤-⑥-|
④⑥⑦⑤ |⑦---⑧-|
⑩口①⑪ |⑨-⑩-⑪-|
47
口口口口 |①---|
②③④⑤ |②-③-④-|
⑥⑦⑧⑨ |⑤-⑥-⑦-|
⑩①口口 |⑧-⑨-⑩-|
48
口③③口 |①-②---|
⑥⑤④口 |--③---|
口口口口 |--④-⑤-|
口②②① |⑥---|
49
①⑥⑦口 |--①-②-|
口口口② |③-④-⑤-|
③口口口 |----|
口⑤⑤④ |--⑥-⑦-|
50
口口口③ |①-②---|
口①②口 |----③-|
口口口口
口口口口

④口口口
⑦⑦口⑤
⑦⑥⑦口 |④-⑤---|
⑦口⑦口 |⑥-⑦---|
51
④③②① |----|
口⑥⑤口 |----|
口口口口 |①-②-③-|
口口口口 |④-⑤-⑥-|
52
⑥口口⑤ |①---②-|
①口口口 |③---④-|
③口口② |----|
③④④② |--⑤-⑥-|
53
口③①口 |①-②---|
③④④④ |--③-|
②③④口 |--④-|
③口口口 |----|
54
①口口① |①---|
口口口口 |----|
口口口口 |②---|
口②②口 |----|
55
口口③口 |①---|
①②②口 |----|
①口③口 |②---|
口口口口 |③---|
56
①③口③ |①---|
口口口口 |②---|
①口口口 |③---|
②口②口 |----|
57
①②①② |①---|
口①②口 |----|
①②①② |②---|
口①②口 |----|
58
①口①口 |①---|
口口口口 |----|
口口口口 |②---|
口②口② |----|
59
口口口口 |①---|
口①①口 |----|
口②②口 |②---|
口口口口 |----|
60
口口口口 |①---|
①口口① |----|
口口口口 |----|
口口口口 |----|
61
口口口口 |①---|
②口口② |----|
口口口口 |②---|
口①①口 |----|
62
口⑦⑧口 |①-②-|
口⑤⑥口 |③-④-|
口③④口 |⑤-⑥-|
口①②口 |⑦-⑧-|
63
①口口④ |①-②-|
⑤口口口 |③-④-|
口⑦⑧⑥ |⑤-⑥-|
③口口② |⑦-⑧-|
64
①③⑤⑦ |①-②-|
口口①① |③-④-|
口口口口 |⑤-⑥-|
②④⑥⑧ |⑦-⑧-|
65
①③⑤⑦ |①-②-|
口①①口 |③-④-|
④⑦⑦④ |⑤-⑥-|
②④⑥⑧ |⑦-⑧-|
66
①③口口 |①-②-|
口③①④ |③-④-|
口口口口
②④口口

口口⑤⑦
口口⑧口
⑥口口⑧ |⑤-⑥-|
口口⑥⑧ |⑦-⑧-|
67
①③⑤⑦ |①-②-|
①口口口 |③-④-|
口①口口 |⑤-⑥-|
②④⑥⑧ |⑦-⑧-|
68
⑦⑥⑤口 |①-②-|
①②③④ |③-④-|
①②③④ |--⑤-|
⑦⑥⑤口 |⑥-⑦-|
69
口口④口 |--①-|
④①②③ |②-③-|
⑤①②③ |④--⑤|
⑥⑥⑤⑥ |--⑥-|
70
①①口① |①---|
②④③口 |----|
口③④② |②--③|
口口口口 |--④-|
71
①③③① |①-②-|
⑤⑦⑦⑤ |③-④-|
口口口口 |⑤-⑥-|
⑧④②⑥ |⑦-⑧-|
72
④④口① |①-②-|
口口口口 |③-④-|
口②①③
口口③口

口口⑤口
⑥⑧口⑦
⑥口⑧口 |⑤-⑥-|
口口口口 |⑦-⑧-|
73
⑧④④⑤ |①-②-|
口⑧①口 |③-④-|
⑥⑥⑦口 |⑤-⑥-|
②②口③ |⑦-⑧-|
74
⑧④口口 |①-②-|
④⑧⑤① |③-④-|
⑥口⑥① |⑤-⑥-|
②③⑦③ |⑦-⑧-|
75
口口①① |①---|
口口④① |②---|
③②口口 |③---|
③③口口 |④---|
76
③①口⑥ |①-②-|
①⑦⑧口 |③-④-|
口口②① |⑤-⑥-|
⑤口①④ |⑦-⑧-|
77
③口①口 |①-②-|
口口口① |③-④-|
①口②口
口①口④

口口口⑥
口⑦口⑧
口口口口 |⑤-⑥-|
⑤口口口 |⑦-⑧-|
78
口①②⑥ |①-②-|
①⑦口口 |③-④-|
口③④① |⑤-⑥-|
口⑤①⑧ |⑦-⑧-|
79
①口口口 |①-②-|
⑤口⑥② |③-④-|
口⑦口⑧ |⑤-⑥-|
③口④口 |⑦-⑧-|
80
⑥①⑥① |①-②-|
口④口④ |③-④-|
③口③口 |----|
⑤②⑤② |⑤-⑥-|
81
④②④② |①-②-|
①③①口 |----|
口③③③ |③---|
口③口③ |④---|
82
口①⑥① |①-②-|
③口③⑤ |③-④-|
口④⑥④ |----|
②口②⑤ |⑤-⑥-|
83
②③口⑥ |①-②-|
⑦①④口 |----|
②⑤口⑧ |③④⑤-|
⑨①口口 |⑥⑦⑧⑨|
84
①⑥①⑦ |①-②-|
口②⑥② |③-④-|
③⑤③⑦ |--⑤-|
口④⑤④ |⑥-⑦-|
85
②口②口 |①-②-|
①④口④ |③-④-|
④口④口 |----|
①③口③ |----|

不確定度: 0

最終更新:2013年11月22日 22:29