アストライアの双皿
ZODIACSYNDICATE

MICHI's EDIT

Level: 10
BPM: 173
Notes: 867

1
②口口口 |----|
口口口口 |----|
口口口口 |--①-|
①口口口 |--②-|
2
口口口④ |--①-|
①口口口 |--②-|
②口口口 |--③-|
口口口③ |--④-|
3
④口口口 |--①-|
口口口① |--②-|
口口口② |--③-|
口口口③ |--④-|
4
口①②④ |--①-|
口③②口 |--②-|
③④④口 |--③-|
口口口③ |--④-|
5
①①②口 |--①-|
②口口口 |--②-|
口口口② |----|
②口①口 |----|
6
③⑤口⑦ |①-②-|
⑥口口⑤ |③-④-|
口⑦④③ |⑤-⑥-|
⑧①②① |⑦-⑧-|
7
③⑤口⑦ |①-②-|
⑥口口⑤ |③-④-|
口⑦④③ |⑤-⑥-|
⑧①②① |⑦-⑧-|
8
口口④口 |①-②-|
口口③口 |③-④-|
口口②口
口口①口

口⑤口口
口⑥口口
口口口口 |⑤-⑥-|
⑦⑧⑨⑩ |⑦⑧⑨⑩|
9
口③口口 |①---|
③口②① |②---|
④口①② |③---|
口④口口 |④---|
10
口口口口 |①---|
口①①口 |----|
口①①口
口口口口
11
口⑦③口 |①-②-|
②④⑧⑥ |③④--|
⑤口口① |⑤-⑥-|
①③⑤⑦ |⑦⑧--|
12
口⑦③口 |①-②-|
②④⑧⑥ |③④--|
⑤口口① |⑤-⑥-|
①③⑤⑦ |⑦⑧--|
13
口⑦③口 |①-②-|
②④⑧⑥ |③④--|
⑤口口① |⑤-⑥-|
①③⑤⑦ |⑦⑧--|
14
口⑤③口 |①-②-|
②④口⑥ |③④--|
⑥口口① |⑤---|
①③⑤口 |⑥---|
15
①④口① |①-②-|
⑧⑤③⑦ |③④-⑤|
⑩⑥口⑨ |-⑥-⑦|
②口口② |⑧⑨⑩-|
16
①口④① |①-②-|
⑦③⑤⑧ |③④-⑤|
⑨口⑥⑩ |-⑥-⑦|
②口口② |⑧⑨⑩-|
17
①④口① |①-②-|
⑧⑤③⑦ |③④-⑤|
⑩⑥口⑨ |-⑥-⑦|
②口口② |⑧⑨⑩-|
18
①⑧⑪① |①-②-|
口⑩⑦⑤ |③④-⑤|
口⑥⑨口 |⑥-⑦-⑧-|
②④③② |⑨-⑩-⑪-|
19
口口口② |①---|
口口口③ |②---|
口口口④ |③---|
①口口① |④---|
20
口口口② |①---|
口口口③ |②---|
口口口④ |③---|
口口口① |④---|
21
口口口② |①---|
口口口③ |②---|
口口口④ |③---|
口口口① |④---|
22
①①口口 |①---|
①①口口 |----|
口口②② |②---|
口口②② |----|
23
口口①① |①---|
口口①① |----|
①①口口
①①口口

②口口口
口口③口
口③口口 |②---|
口口口② |③---|
24
口⑦③口 |①-②-|
②④⑧⑥ |③④--|
⑤口口① |⑤-⑥-|
①③⑤⑦ |⑦⑧--|
25
口⑦③口 |①-②-|
②④⑧⑥ |③④--|
⑤口口① |⑤-⑥-|
①③⑤⑦ |⑦⑧--|
26
口⑦③口 |①-②-|
②④⑧⑥ |③④--|
⑤口口① |⑤-⑥-|
①③⑤⑦ |⑦⑧--|
27
口⑤③口 |①-②-|
②④口⑥ |③④--|
⑥口口① |⑤---|
①③⑤口 |⑥---|
28
⑦⑤②① |①---|
⑤⑥⑦⑧ |②-③④|
口③口口 |⑤-⑥-|
口④口① |⑦-⑧-|
29
⑦⑤②① |①---|
⑤⑥⑦⑧ |②-③④|
口③口口 |⑤-⑥-|
口④口① |⑦-⑧-|
30
⑥⑤②① |①---|
口④口⑧ |②-③④|
⑦口③口 |⑤---|
口⑤口① |⑥-⑦⑧|
31
⑦⑤②① |①---|
⑤⑥⑦⑧ |②-③④|
口③口口 |⑤-⑥-|
口④口① |⑦-⑧-|
32
⑥⑤②① |①---|
口④口⑧ |②-③④|
⑦口③口 |⑤---|
口⑤口① |⑥-⑦⑧|
33
⑦⑤②① |①---|
⑤⑥⑦⑧ |②-③④|
口③口口 |⑤-⑥-|
口④口① |⑦-⑧-|
34
⑥⑤②① |①---|
口④口⑧ |②-③④|
⑦口③口 |⑤---|
口⑤口① |⑥-⑦⑧|
35
口口口① |①-②③|
口⑤③口 |-④⑤-|
口②④口
口口口①

口⑩口⑪
⑥口⑬口
口口口⑦ |⑥⑦⑧⑨|
⑫⑧⑨口 |⑩⑪⑫⑬|
36
①⑩②口 |①②-③|
④⑪口③ |④-⑤⑥|
⑦⑫⑥⑤ |⑦⑧⑨-|
⑩⑬⑨⑧ |⑩⑪⑫⑬|
37
①⑩②口 |①②-③|
④⑪口③ |④-⑤⑥|
⑦⑫⑥⑤ |⑦⑧⑨-|
⑩⑬⑨⑧ |⑩⑪⑫⑬|
38
①⑩②口 |①②-③|
④⑪口③ |④-⑤⑥|
⑦⑫⑥⑤ |⑦⑧⑨-|
⑩⑬⑨⑧ |⑩⑪⑫⑬|
39
①⑩②口 |①②-③|
④口口③ |④-⑤⑥|
⑦⑪⑥⑤ |⑦⑧⑨-|
⑩口⑨⑧ |⑩-⑪-|
40
①口④① |①-②-|
③②②④ |③-④-|
⑤⑧⑧⑥ |⑤⑥--|
⑦⑦⑥⑦ |⑦-⑧-|
41
①口④① |①-②-|
③②②④ |③-④-|
⑤⑧⑧⑥ |⑤⑥--|
⑦⑦⑥⑦ |⑦-⑧-|
42
①口③② |①-②③|
④⑤⑥⑦ |④⑤⑥⑦|
⑧⑪⑪⑧ |⑧-⑨-|
⑩⑨⑨⑩ |⑩-⑪-|
43
②⑫口① |①②-③|
④口⑪③ |④-⑤⑥|
⑥⑩口⑤ |-⑦⑧-|
⑧口⑨⑦ |⑨⑩⑪⑫|
44
①口口① |①---|
②口口② |--②-|
③口口③ |③---|
口口口口 |----|
45
口口口② |①---|
口口口③ |②---|
口口口④ |③---|
①口口① |④---|
46
③口口② |①---|
口口口④ |②-③-|
口⑤口⑤ |④---|
①口口① |⑤---|
47
口⑤口② |①---|
口口口④ |②-③-|
③口口⑤ |④---|
①口口① |⑤---|
48
口口口② |①---|
口口口③ |②---|
口口口④ |③---|
①口口① |④---|
49
口口口② |①---|
口⑤口④ |②-③-|
口③口⑤ |④---|
①口口① |⑤---|
50
⑤口口② |①---|
口口口④ |②-③-|
③口口⑤ |④---|
①口口① |⑤---|
51
口⑥⑥④ |①--②|
③①②口 |--③-|
口⑤⑤④ |-④--|
③②①口 |⑤-⑥-|
52
⑤口口⑥ |①②--|
口②①口 |--③④|
口口口口 |----|
口③④口 |⑤-⑥-|
53
口③⑩⑩ |①②③-|
口⑦②④ |④⑤⑥-|
⑤①⑧口 |⑦⑧⑨-|
口⑨口⑥ |⑩---|
54
口口口口 |①②--|
③口①③ |--③-|
口②口口 |----|
④口口④ |④---|
55
①②③口 |①②③-|
口⑥⑤④ |④⑤⑥-|
口⑨⑧⑦ |⑦⑧⑨-|
⑩⑪⑫口 |⑩⑪⑫-|
56
口口④口 |①---|
①③口口 |--②③|
①口②口 |④---|
口口口口 |----|
57
口⑤④口 |①-②-③-|
⑥⑧②③ |④-⑤-⑥-|
口⑦⑨口 |⑦-⑧-⑨-|
⑫⑪⑩① |⑩-⑪-⑫-|
58
③②口① |①-②-|
口口口口 |----|
④口口口 |③-④-|
口口口口 |----|
59
口口口口 |①②-③|
口口③④ |----|
口口口口 |④-⑤-|
口①②⑤ |----|
60
口口口③ |①-②-|
口口口口 |----|
口口口④ |③-④-|
②口①口 |----|
61
口口口口 |①②--|
口①②口 |----|
口③④口 |③④--|
口口口口 |----|
62
③口口⑦ |①②--|
口口口口 |③--④|
④口口⑧ |⑤⑥--|
①②⑥⑤ |⑦--⑧|
63
③口口⑦ |①②--|
口口口口 |③--④|
④口口⑧ |⑤⑥--|
①②⑥⑤ |⑦--⑧|
64
③口口⑦ |①②--|
口口口口 |③--④|
④口口⑧ |⑤⑥--|
①②⑥⑤ |⑦--⑧|
65
③口口⑦ |①②--|
口口口口 |③--④|
④口口⑧ |⑤⑥--|
①②⑥⑤ |⑦--⑧|
66
①③口口 |①-②-|
①③口口 |③-④-|
口口口口
②④口口

口口⑤⑦
口口⑤⑦
口口口口 |⑤-⑥-|
⑨口⑥⑧ |⑦-⑧⑨|
67
⑦⑧⑨⑩ |-①-②|
⑤③③⑤ |-③-④|
②①①② |-⑤-⑥|
口④④⑥ |⑦⑧⑨⑩|
68
口口口口 |①---|
口口口口 |----|
口①①口 |----|
口口口口 |----|
69
④②①③ |①②-③|
⑨⑥④⑤ |-④-⑤|
⑨⑤口口 |-⑥-⑦|
③⑧⑦⑥ |⑧-⑨-|
70
④③②① |①②③-|
⑦⑥口④ |④-⑤-|
口⑨①⑥ |⑥-⑦-|
⑤⑧口⑧ |⑧-⑨-|
71
④③②① |①②③-|
⑥⑨口④ |④-⑤-|
⑤⑧①⑥ |⑥-⑦-|
口⑦口⑧ |⑧-⑨-|
72
口口③① |①-②-|
口口口③ |③-④-|
口口口口
①④②口

⑦⑤口口
口口口口
⑥口口⑤ |⑤-⑥-|
口口⑧⑦ |⑦-⑧-|
73
口口⑤④ |①②③④|
口⑥③口 |-⑤⑥⑦|
口②⑦口
①口口口

口口口口
口口口⑩
⑪口口口 |⑧⑨-⑩|
⑫⑧口⑨ |⑪-⑫-|
74
①②③④ |①②③-|
④口⑨⑥ |④-⑤-|
⑥①⑦口 |⑥-⑦-|
⑧口⑧⑤ |⑧-⑨-|
75
①②③口 |①②③-|
④口口④ |④-⑤-|
口①⑤口
口口口口

口口口⑥
口⑦⑦口
⑥⑨口⑨ |⑥-⑦-|
⑧口⑧口 |⑧-⑨-|
76
①③⑤⑦ |①-②-|
③口口② |③-④-|
⑤口④口 |⑤-⑥-|
⑦⑥⑧① |⑦-⑧-|
77
⑥⑦⑧⑨ |①②③④|
①③④② |-⑤--|
⑭⑤⑤口 |⑥⑦⑧⑨⑩⑪|
⑩⑪⑫⑬ |⑫⑬⑭---|
78
口口口口 |①②③④|
④口口⑤ |--⑤-|
口③②①
口口口口

⑦口口⑦
口口口口
⑧口口⑧ |⑥-⑦-|
⑨⑥⑥⑨ |⑧-⑨-|
79
口⑥⑤⑦ |①②③④|
④②①③ |-⑤⑥⑦|
口⑨⑧⑩ |-⑧⑨⑩|
口⑫⑪口 |-⑪⑫-|
80
⑦⑤⑥口 |①②③④|
③①②④ |-⑤⑥⑦|
口口口口
口口口口

口口口口
口⑪口口
⑩⑧⑨口 |-⑧⑨⑩|
口口⑫口 |-⑪⑫-|
81
⑥④④⑥ |①②③④|
③口口口 |--⑤-|
口⑤⑤② |⑥---|
①口口口 |----|
82
口①①口 |①---|
①口口① |----|
②②②② |②---|
口口口口 |----|
83
口③⑦口 |①②-③|
口口口口 |-④--|
④口口⑧ |⑤⑥-⑦|
⑥⑤①② |-⑧--|
84
口③⑦口 |①②-③|
口口口口 |-④--|
④口口⑧ |⑤⑥-⑦|
⑥⑤①② |-⑧--|
85
④③⑧⑨ |①②-③|
口⑤⑩口 |-④⑤-|
④③⑧⑨ |⑥⑦-⑧|
⑦⑥①② |-⑨⑩-|
86
④③⑧⑨ |①②-③|
口⑤⑩口 |-④⑤-|
④③⑧⑨ |⑥⑦-⑧|
⑦⑥①② |-⑨⑩-|
87
口①口口 |①---|
口口口口 |----|
口口口口 |----|
口口①口 |----|
88
口⑤口④ |①②-③|
①口③口 |-④-⑤|
口③口②
④口⑤口

⑨口口口
⑨⑧口⑥
⑥口⑦⑨ |-⑥-⑦|
口口口⑨ |⑧-⑨-|

不確定度: 0

最終更新:2013年11月22日 21:15