Unicorn tail Dustboxxxx RMX
Dustboxxxx

EXTREME

Level: 10
BPM: 200
Notes: 808

1
口口口口 |----|
口口口口 |----|
口口口口 |----|
口口口口 |----|
2
口口口口 |----|
口②口口 |----|
口口①口 |----|
口口口口 |--①②|
3
②口口口 |①---|
口口口① |--②-|
②口口口 |----|
口口口① |----|
4
口口口口 |----|
口口口口 |----|
口口口口 |----|
口口口口 |----|
5
口口口口 |①---|
④口②口 |②---|
口③口① |③---|
口口口口 |④---|
6
口口口口 |①---|
口口②口 |②---|
口口口① |③-④-|
③④⑤⑥ |⑤-⑥-|
7
口口口口 |①---|
口②口④ |②---|
①口③口 |③---|
口口口口 |④---|
8
⑥⑤④③ |①---|
口②口口 |②---|
①口口口 |③-④-|
口口口口 |⑤-⑥-|
9
口口口口 |①---|
④口②口 |②---|
口③口① |③---|
口口口口 |④---|
10
口口口口 |①---|
口口②口 |②---|
口口口① |③-④-|
③④⑤⑥ |⑤-⑥-|
11
口口口口 |①-②-|
⑧⑦③④ |③-④-|
①②⑥⑤ |⑤-⑥-|
口口口口 |⑦-⑧-|
12
①①①① |①---|
口口口口 |----|
⑥⑦⑧⑨ |②③④⑤|
②③④⑤ |⑥⑦⑧⑨|
13
③①⑧② |①-②-|
①口⑥④ |③-④-|
口口口口 |⑤-⑥-|
⑤⑦口口 |⑦-⑧-|
14
口口⑧② |①-②-|
口口⑥④ |③-④-|
口口口口 |⑤-⑥-|
⑤⑦①③ |⑦-⑧-|
15
口口口② |①-②-|
口口⑥④ |③-④-|
口⑦⑧口 |⑤-⑥-|
⑤口①③ |⑦-⑧-|
16
口①①口 |①---|
②③④口 |----|
②③④口 |②--③|
口①①口 |--④-|
17
②⑧①口 |①-②-|
④⑥口① |③-④-|
口口口口 |⑤-⑥-|
口⑦⑤③ |⑦-⑧-|
18
②⑧口口 |①-②-|
④⑥口口 |③-④-|
口口口口 |⑤-⑥-|
①⑦⑤③ |⑦-⑧-|
19
②口①口 |①-②-|
④⑫⑪① |③-④-|
⑥⑩⑨⑤ |⑤⑥⑦⑧|
①⑧⑦③ |⑨⑩⑪⑫|
20
②②①口 |①---|
②口口① |----|
口口口② |②---|
口口②② |----|
21
口⑦④② |①-②-|
口⑤⑧⑥ |③-④-|
①③②④ |⑤-⑥-|
口①⑥⑧ |⑦-⑧-|
22
⑦口④② |①-②-|
⑤口⑧⑥ |③-④-|
③口②④ |⑤-⑥-|
①口⑥⑧ |⑦-⑧-|
23
口口④③ |①-②-|
口口口口 |③-④-|
②⑤⑥口 |⑤-⑥-|
①⑦⑧口 |⑦-⑧-|
24
口①口口 |①---|
①④③② |----|
口④③② |②--③|
口口口口 |--④-|
25
⑨⑤口⑧ |①-②③|
口口⑦⑥ |④-⑤-|
⑤⑨口口 |⑥-⑦-|
②③④① |⑧-⑨-|
26
口⑥⑧⑦ |①-②-|
④②口⑤ |③-④-|
⑥口口③ |⑤-⑥-|
②④口① |⑦-⑧-|
27
①口口口 |①---|
口⑨⑧口 |----|
⑦①口⑥ |②③④⑤|
⑤③②④ |⑥⑦⑧⑨|
28
②③①口 |①---|
口口口① |----|
口口口口 |②-③-|
口口口口 |----|
29
口口①口 |①-②-|
口口口① |③-④⑤|
③口口口
②口⑤④

⑧⑨⑩口
口口⑦口
口口口口 |⑥-⑦-|
口⑥口口 |⑧⑨⑩-|
30
口口口⑧ |①-②-|
⑤③口⑥ |③-④-|
⑦①②④ |⑤-⑥-|
口口口口 |⑦-⑧-|
31
④⑥⑧口 |①-②-|
口口口口 |③-④-|
口口②口 |⑤-⑥-|
①⑦⑤③ |⑦-⑧-|
32
⑨⑩口⑪ |①②③④|
⑧⑦⑥⑤ |⑤⑥⑦⑧|
④③②① |⑨--⑩|
⑨⑩口⑪ |--⑪-|
33
口口⑥口 |①-②-|
⑦⑧⑨⑩ |③-④-|
③①①② |⑤-⑥-|
⑤口④口 |⑦⑧⑨⑩|
34
①②口⑥ |①-②-|
口口口口 |③④⑤-|
口⑧⑦⑨ |⑥-⑦-|
口⑤④③ |⑧-⑨-|
35
④⑤⑥⑦ |①②③④|
③⑩⑨⑧ |⑤⑥⑦⑧|
②⑪口⑮ |⑨⑩⑪⑫|
①⑫⑬⑭ |⑬⑭⑮-|
36
②③④口 |①②③④|
①口口口 |⑤---|
⑤口口口
口口口口

⑬口口⑩
口⑨⑥口
口⑪⑧口 |⑥⑦⑧⑨|
⑦口口⑫ |⑩⑪⑫⑬|
37
口口口口 |①---|
口口口口 |----|
口口口① |----|
口口①口 |----|
38
口口口口 |----|
口口口口 |----|
口口口口 |----|
口口口口 |----|
39
口口口口 |----|
口口口口 |----|
口口口口 |----|
口口口口 |----|
40
口口口口 |----|
①口①口 |----|
①口①口 |----|
口①口口 |①---|
41
①⑤④⑤ |①---|
④①口③ |②---|
口⑤口② |③---|
口口①口 |④-⑤-|
42
口口口口 |--①-|
④口①⑤ |--②-|
口口④② |--③-|
④口口③ |④-⑤-|
43
①口①② |①---|
口口口口 |②---|
口①口口
口口口口

口⑤口口
口口③⑤
口⑤口④ |③---|
口口口口 |④-⑤-|
44
②口口③ |--①-|
口②④口 |--②-|
④口①⑤ |--③-|
口④②口 |④-⑤-|
45
口口口口 |①---|
口口口口 |②---|
口②①口
①口口①

⑤④口口
③口口⑤
口口⑤④ |③---|
口口口口 |④-⑤-|
46
口口口口 |--①-|
⑤①口④ |--②-|
②口口口 |--③-|
③口口④ |④-⑤-|
47
②①④口 |①---|
⑤③①口 |②---|
④口④① |③---|
口口口口 |④-⑤-|
48
③口口口 |--①-|
口④口① |--②-|
⑤①口口 |--③-|
口②口① |④-⑤-|
49
口口口口 |①---|
口口②口 |②---|
口口①口
口口口①

⑥口口口
④口口③
口口⑥口 |③-④-|
口口⑤口 |⑤-⑥-|
50
⑥口③① |--①-|
口④口⑥ |②-③-|
③口口⑤ |--④-|
①②④口 |⑤-⑥-|
51
⑧口口① |①-②-|
⑥口③⑧ |③-④-|
④口⑤口 |⑤-⑥-|
②口口⑦ |⑦-⑧-|
52
⑥口口④ |--①-|
④口⑤口 |②-③-|
③口⑥① |--④-|
①②③口 |⑤-⑥-|
53
⑥②②⑥ |①---|
口⑤⑤口 |②---|
③④口③ |③-④-|
①口口① |⑤-⑥-|
54
⑥②口口 |--①-|
①口口① |②-③-|
④⑤口④ |--④-|
口③③口 |⑤-⑥-|
55
⑧⑤①⑧ |①-②-|
⑤③②① |③-④-|
口⑥④⑦ |⑤-⑥-|
口口⑦口 |⑦-⑧-|
56
口⑧①⑧ |①-②-|
④⑦④⑦ |③-④-|
⑥⑤⑥口 |⑤-⑥-|
②③口② |⑦-⑧-|
57
④⑤②口 |①---|
②口⑤④ |②---|
③口口口 |③---|
①口③口 |④-⑤-|
58
口口口口 |--①-|
①⑥口⑥ |②-③-|
⑤③⑤① |--④-|
②④③④ |⑤-⑥-|
59
①②①③ |①---|
④口⑤口 |②---|
口口口口 |③---|
②④③⑤ |④-⑤-|
60
②口②口 |--①-|
口③口③ |--②-|
④①④① |--③-|
②⑤②⑤ |④-⑤-|
61
②口口① |①---|
口③口口 |②---|
⑤②⑤① |③---|
③④口④ |④-⑤-|
62
口③②① |--①-|
④口④口 |②-③-|
口口口口 |--④-|
③④①④ |----|
63
⑧口⑤口 |①-②-|
口⑦⑥① |③-④-|
口③②⑤ |⑤-⑥-|
④口①口 |⑦-⑧-|
64
口口口① |①-②-|
②口口③ |③-④-|
④口①口
口②口口

口口⑥⑦
口⑤口口
口口口口 |--⑤-|
⑤口⑦⑥ |⑥-⑦-|
65
③①口⑥ |①---|
①⑤口② |②---|
⑤③②④ |③-④-|
口口⑥口 |⑤-⑥-|
66
②⑤①⑤ |--①-|
口④口④ |--②-|
③口③口 |--③-|
口②口① |④-⑤-|
67
②口①口 |①---|
口④口口 |②---|
③⑥③⑥ |③-④-|
①⑤②⑤ |⑤-⑥-|
68
①口①③ |--①-|
口④⑤② |--②-|
口口③口 |--③-|
④口②⑤ |④-⑤-|
69
口①②口 |①---|
①口口口 |②---|
②口口②
口口口口

③口口③
⑥口⑤④
口③口口 |③-④-|
口⑥口⑤ |⑤-⑥-|
70
③①口② |--①-|
口②口口 |--②-|
口③①口 |--③-|
①口②③ |----|
71
口③①口 |①-②-|
③④②① |③-④-|
口口口口
口口口口

口口口口
口口口⑧
口口口⑤ |⑤-⑥-|
⑦口⑤⑥ |⑦-⑧-|
72
①口②口 |①-②-|
⑪⑩⑨⑧ |③④⑤-|
③④⑤口 |⑥-⑦-|
口⑦口⑥ |⑧⑨⑩⑪|
73
口①①口 |①---|
口口口口 |----|
口口口口 |----|
口口口口 |----|
74
口口口口 |----|
口口口口 |----|
口口口口 |----|
口口口口 |----|
75
口口口口 |----|
口口口口 |----|
口口口口 |----|
口口口口 |----|
76
口口口口 |----|
口口口口 |----|
口口口口 |----|
口口口口 |----|
77
口口①② |①-②-|
口⑦④① |③-④-|
①⑤⑥口 |⑤-⑥-|
③①口⑧ |⑦-⑧-|
78
②①④口 |①-②-|
①口口③ |③-④-|
口口口①
口口①口

口⑧口⑤
口⑥⑦口
口口口口 |⑤-⑥-|
口口口口 |⑦-⑧-|
79
⑫⑭⑬⑪ |①②③④|
⑩⑯⑮⑨ |⑤⑥⑦⑧|
⑧②①⑦ |⑨⑩⑪⑫|
⑥④③⑤ |⑬⑭⑮⑯|
80
口口口口 |①-②-|
⑤口口⑤ |③-④-|
⑥③②⑥ |⑤--⑥|
⑦④①⑦ |--⑦-|
81
②口⑧⑤ |①-②-|
口②⑤口 |③-④-|
⑦⑥①⑧ |⑤-⑥-|
口④③口 |⑦-⑧-|
82
口口口口 |①-②-|
③②④口 |③-④-|
⑦口①口 |--⑤-|
②⑤⑥④ |⑥-⑦-|
83
⑦③①⑤ |①-②-|
③⑦⑤① |③-④-|
口④②口 |⑤-⑥-|
口⑥⑧⑧ |⑦-⑧-|
84
口①①口 |----|
②③④口 |①---|
①口口① |②--③|
②③④口 |--④-|
85
⑥⑤②③ |①-②-|
⑤⑦口② |③-④-|
口①④⑧ |⑤-⑥-|
口口⑧口 |⑦-⑧-|
86
口⑦口口 |①-②-|
口⑤③⑥ |③-④-|
②④口口 |--⑤-|
④②口① |⑥-⑦-|
87
⑥口①口 |①-②-|
②⑦③口 |③-④-|
口④⑤① |⑤-⑥-|
口口⑧③ |⑦-⑧-|
88
口①②④ |①-②-|
口口③③ |③-④-|
①④④②
②③口口

⑤口口口
⑥⑥口口
⑦口口口 |⑤--⑥|
口口口口 |--⑦-|
89
口口口口 |①---|
④口③⑤ |②---|
口②口口 |③---|
口口①口 |④-⑤-|
90
口①口口 |--①-|
口⑤②口 |--②-|
口口④口 |--③-|
口③口口 |④-⑤-|
91
口口①口 |①---|
②口口③ |②---|
⑤口口口 |③---|
口④口口 |④-⑤-|
92
口③②① |--①-|
口口④口 |--②-|
口⑤口口 |--③-|
口口口口 |④-⑤-|
93
口口口口 |①---|
口口口口 |②---|
口口②①
口口①口

③口口口
口口④口
口口口⑤ |③---|
口口口口 |④-⑤-|
94
口口口口 |--①-|
口口口口 |--②-|
①口口口 |--③-|
口③②口 |----|
95
口口⑤口 |①---|
口④口口 |②-③-|
口②③口 |④---|
①口口① |⑤---|
96
口①口口 |①---|
①口口口 |----|
口口口口 |----|
口口口口 |----|
97
②②③③ |①---|
②口口③ |②---|
①口④④ |③---|
①口④④ |④---|

不確定度: 0

最終更新:2014年08月02日 00:18