Gott
Hommarju

EXTREME

Level: 10
BPM: 195
Notes: 865

1
口口口口 |----|
口口口口 |----|
口口口口 |----|
口口口口 |----|
2
口口口口 |----|
口口口口 |----|
口口口口 |----|
口口口口 |----|
3
口口口口 |----|
口口口口 |----|
口口口口 |----|
口口口口 |----|
4
⑤口口② |①---|
口③口口 |②---|
口口口口 |③---|
①口④口 |④-⑤-|
5
口口②口 |--①-|
口口口④ |②---|
口③③口 |③---|
口①口口 |--④-|
6
口口口② |①---|
口口⑤口 |②---|
口③③口 |③---|
①④口口 |④-⑤-|
7
②口④口 |--①-|
⑤口口口 |②---|
口③口⑥ |③-④-|
口口①口 |⑤-⑥-|
8
⑤口口② |①---|
口③口口 |②---|
口口口口 |③---|
①口④口 |④-⑤-|
9
口口②口 |--①-|
口口口④ |②---|
口③③口 |③---|
口①口口 |--④-|
10
口口口② |①---|
口口⑤口 |②---|
口③③口 |③---|
①④口口 |④-⑤-|
11
②口④口 |--①-|
⑤口口口 |②---|
口③⑥口 |③-④-|
口口①口 |⑤-⑥-|
12
⑦②④口 |①---|
⑤③口① |②-③-|
②⑦⑥④ |④-⑤-|
口⑤①⑥ |⑥-⑦-|
13
口②口④ |--①-|
⑤③⑥① |②-③-|
②口口④ |④-⑤-|
口⑤①⑥ |⑥---|
14
②口⑥④ |①---|
⑤③⑥口 |②-③-|
②⑦①④ |④-⑤-|
⑤⑦①口 |⑥-⑦-|
15
⑤②口口 |--①-|
⑤③⑥① |②-③-|
②⑦④④ |④-⑤-|
⑦口①⑥ |⑥-⑦-|
16
⑥口③⑦ |①-②-|
口④口① |③-④-|
⑧口口⑤ |⑤-⑥-|
口②口口 |⑦-⑧-|
17
口口⑤口 |①-②-|
④⑧①口 |③-④-|
口⑥口口 |⑤-⑥-|
②口⑦③ |⑦-⑧-|
18
口④口⑤ |①②③④|
⑧口①口 |⑤⑥⑦⑧|
⑥口口③
②口口⑦

⑫口⑨口
口⑭口⑪
口口⑬口 |⑨⑩⑪⑫|
⑯⑩⑮口 |⑬⑭⑮⑯|
19
口④口⑤ |①②③④|
⑧口①口 |⑤⑥⑦⑧|
⑥②口③
口口口⑦

⑫口⑨口
口⑭⑮⑪
口口⑬口 |⑨⑩⑪⑫|
⑯⑩口口 |⑬⑭⑮⑯|
20
口口口口 |①---|
口口口口 |----|
口口口口 |----|
口口①口 |----|
21
口口口口 |----|
口口口口 |----|
口口口口 |----|
口口口口 |----|
22
口口④② |①-②-|
口口⑧⑥ |③-④-|
口口①③ |⑤-⑥-|
口口⑤⑦ |⑦-⑧-|
23
⑥②口口 |①-②-|
④⑧口口 |③-④-|
①⑤口口 |⑤-⑥-|
⑦③口口 |⑦-⑧-|
24
口口⑦⑤ |①-②-|
口口③① |③-④-|
口口④② |⑤-⑥-|
口口⑧⑥ |⑦-⑧-|
25
⑦⑤口口 |①-②-|
③①口口 |③-④-|
④②口口 |⑤-⑥-|
⑧⑥口口 |⑦-⑧-|
26
口口②① |①-②-|
⑤⑥口口 |③-④-|
口口④③ |⑤-⑥-|
⑦⑧口口 |⑦-⑧-|
27
⑤⑥口口 |①-②-|
口口②① |③-④-|
⑦⑧口口 |⑤-⑥-|
口口④③ |⑦-⑧-|
28
⑦口①⑤ |①-②-|
口③口口 |③-④-|
口口②口 |⑤-⑥-|
⑧④口⑥ |⑦-⑧-|
29
口⑥⑤⑦ |①-②-|
④口①口 |③-④-|
口②口③ |⑤-⑥-|
口⑥⑤⑦ |--⑦-|
30
①口口口 |①---|
口⑥④② |②-③-|
口⑦⑤③ |④-⑤-|
①口口口 |⑥-⑦-|
31
③⑤①口 |①-②-|
口口口⑧ |③-④-|
⑦口口口 |⑤-⑥-|
口②⑥④ |⑦-⑧-|
32
口⑧④⑥ |①-②-|
①口口口 |③-④-|
口口口② |⑤-⑥-|
⑤③⑦口 |⑦-⑧-|
33
②口口⑦ |①-②-|
④口口⑤ |③-④-|
⑥口口③ |⑤-⑥-|
⑧口口① |⑦-⑧-|
34
口口口⑦ |①-②-|
⑥①①⑥ |③-④-|
口②③口 |⑤-⑥-|
口④⑤⑦ |--⑦-|
35
①口口⑦ |①-②-|
⑥③②⑥ |③-④-|
口⑤④口 |⑤-⑥-|
①口口⑦ |--⑦-|
36
①③②⑥ |①---|
口⑤④口 |②-③-|
口④⑤口 |④-⑤-|
①②③⑥ |--⑥-|
37
①③②口 |①---|
口口口口 |②-③-|
口口口口
①口口口

口口口口
口口⑥口
口⑤④口 |④-⑤-|
⑦口口口 |⑥-⑦-|
38
⑦②④口 |①---|
⑤③口① |②-③-|
②⑦⑥④ |④-⑤-|
口⑤①⑥ |⑥-⑦-|
39
口②口④ |--①-|
⑤③⑥① |②-③-|
②口口④ |④-⑤-|
口⑤①⑥ |⑥---|
40
②口⑥④ |①---|
⑤③⑥口 |②-③-|
②⑦①④ |④-⑤-|
⑤⑦①口 |⑥-⑦-|
41
⑤②口口 |--①-|
⑤③⑥① |②-③-|
②⑦④④ |④-⑤-|
⑦口①⑥ |⑥-⑦-|
42
⑦②④口 |①---|
⑤③口① |②-③-|
②⑦⑥④ |④-⑤-|
口⑤①⑥ |⑥-⑦-|
43
口②口④ |--①-|
⑤③⑥① |②-③-|
②口口④ |④-⑤-|
口⑤①⑥ |⑥---|
44
⑥⑥口⑦ |①---|
口口⑤② |②-③-|
④①③⑦ |④-⑤-|
①④②⑤ |⑥-⑦-|
45
口⑤④⑥ |--①-|
①③口② |②-③-|
③口②口 |④-⑤-|
①⑤④⑥ |--⑥-|
46
①口口口 |①---|
口③口口 |②-③-|
②口口口
①口口口

⑦口口口
口口⑥口
口⑤口口 |④-⑤-|
口口④口 |⑥-⑦-|
47
口②口口 |--①-|
口③口① |②-③-|
口口口④ |④-⑤-|
口⑤口⑥ |⑥---|
48
②口口④ |①---|
⑤③口口 |②-③-|
口⑦口口 |④-⑤-|
口口①⑥ |⑥-⑦-|
49
⑤口口口 |--①-|
口③⑥口 |②-③-|
②口口④ |④-⑤-|
⑦口①口 |⑥-⑦-|
50
⑥口③⑦ |①-②-|
口④口① |③-④-|
⑧口口⑤ |⑤-⑥-|
口②口口 |⑦-⑧-|
51
口口⑤口 |①-②-|
④⑧①口 |③-④-|
口⑥口口 |⑤-⑥-|
②口⑦③ |⑦-⑧-|
52
口④口⑤ |①②③④|
⑧口①口 |⑤⑥⑦⑧|
⑥口口③
②口口⑦

⑫口⑨口
口⑭口⑪
口口⑬口 |⑨⑩⑪⑫|
⑯⑩⑮口 |⑬⑭⑮⑯|
53
口④口⑤ |①②③④|
⑧口①口 |⑤⑥⑦⑧|
⑥②口③
口口口⑦

⑫口⑨口
口⑭⑮⑪
口口⑬口 |⑨⑩⑪⑫|
⑯⑩口口 |⑬⑭⑮⑯|
54
口口口口 |①---|
口口口口 |----|
口口口口 |----|
口口①口 |----|
55
口口口口 |----|
口口口口 |----|
口口口口 |----|
口口口口 |----|
56
口口口口 |----|
口口口口 |----|
口口口口 |----|
口口口口 |----|
57
口口口口 |----|
口口口口 |----|
口口口口 |----|
口口口口 |----|
58
⑦口口⑥ |①-②-|
口⑤口口 |③-④-|
口①①口 |⑤-⑥-|
③⑧②④ |⑦-⑧-|
59
口①④口 |①-②-|
⑦口②口 |③-④-|
口⑤口口 |⑤-⑥-|
③⑧口⑥ |⑦-⑧-|
60
口⑦⑧口 |①-②-|
⑦③②⑧ |③-④-|
①口④口 |⑤-⑥-|
⑤口口⑥ |⑦-⑧-|
61
⑤口口② |①-②-|
口③⑥口 |③-④-|
①⑦④⑧ |⑤-⑥-|
口口口口 |⑦-⑧-|
62
⑦①口⑥ |①-②-|
口⑤口口 |③-④-|
口口口口 |⑤-⑥-|
③⑧②④ |⑦-⑧-|
63
口①④口 |①-②-|
⑦口②口 |③-④-|
口⑤口口 |⑤-⑥-|
③⑧口⑥ |⑦-⑧-|
64
口⑦⑧口 |①-②-|
⑦③②⑧ |③-④-|
①口④口 |⑤-⑥-|
⑤口口⑥ |⑦-⑧-|
65
⑤口口② |①-②-|
口③⑥口 |③-④-|
①⑦④⑧ |⑤-⑥-|
口口口口 |⑦-⑧-|
66
口①①⑥ |①-②-|
⑦⑤口⑧ |③-④-|
⑦口口⑧ |⑤-⑥-|
③口②④ |⑦-⑧-|
67
⑦①④⑧ |①-②-|
口口②口 |③-④-|
⑦⑤口⑧ |⑤-⑥-|
③口口⑥ |⑦-⑧-|
68
口⑦⑧口 |①-②-|
⑦③②⑧ |③-④-|
口口④口 |⑤-⑥-|
⑤①口⑥ |⑦-⑧-|
69
口口口⑥ |①-②③|
⑦⑤②⑧ |④-⑤-|
①③口⑥ |⑥-⑦-|
⑨⑤④⑧ |⑧-⑨-|
70
②口①口 |①-②-|
口口③口 |③④⑤-|
口④①口
口口⑤口

口⑧口⑦
⑥口口口
⑧口⑨⑦ |⑥-⑦-|
口⑥口⑨ |⑧-⑨-|
71
⑤口②⑧ |①-②③|
⑨③⑥口 |④-⑤⑥|
口⑨⑩⑧ |⑦-⑧-|
①⑦④⑩ |⑨-⑩-|
72
⑧①①⑨ |①-②③|
⑩④⑤③ |④-⑤⑥|
⑩口口⑦ |⑦⑧⑨-|
②⑥⑪⑪ |⑩-⑪-|
73
⑫⑦④⑧ |①②③-|
⑬口⑥⑨ |④-⑤⑥|
⑭①②⑩ |⑦--⑧⑨⑩|
③⑤口⑪ |⑪--⑫⑬⑭|
74
口口口口 |①---|
口口口口 |----|
口①①口 |----|
①口口口 |----|
75
口口口口 |----|
口口口口 |----|
口口口口 |----|
口口口口 |----|
76
⑧⑩口⑪ |①-②③|
①④⑦① |④⑤⑥⑦|
⑫⑥③⑬ |⑧⑨⑩⑪|
②口⑨⑤ |⑫-⑬-|
77
⑨口⑥⑫ |①②③④|
⑬③⑧⑭ |⑤⑥⑦⑧|
⑪⑦②口 |⑨⑩⑪⑫|
⑤①⑩④ |⑬-⑭-|
78
⑬①④⑭ |①②③④|
口③⑩口 |⑤⑥⑦⑧|
⑪⑦②⑥ |⑨⑩⑪⑫|
⑤⑨⑫⑧ |⑬-⑭-|
79
⑨②⑭口 |①-②-|
口⑤⑧④ |③④⑤⑥|
⑬⑦①⑫ |⑦⑧⑨⑩|
③⑪⑩⑥ |⑪⑫⑬⑭|
80
⑧⑩口⑪ |①-②③|
①④⑦口 |④⑤⑥⑦|
⑫⑥③⑬ |⑧⑨⑩⑪|
②口⑨⑤ |⑫-⑬-|
81
⑨口⑥⑫ |①②③④|
⑬③⑧⑭ |⑤⑥⑦⑧|
⑪⑦②口 |⑨⑩⑪⑫|
⑤①⑩④ |⑬-⑭-|
82
⑬①④⑭ |①②③④|
口③⑩口 |⑤⑥⑦⑧|
⑪⑦②⑥ |⑨⑩⑪⑫|
⑤⑨⑫⑧ |⑬-⑭-|
83
口④③⑤ |①---|
②①口② |②---|
口口①口 |③-④-|
口③④⑤ |--⑤-|
84
①⑩⑪口 |①-②③|
②④⑦⑤ |④⑤⑥⑦|
⑫⑥③⑬ |⑧⑨⑩⑪|
①⑧⑨口 |⑫-⑬-|
85
①口口⑫ |①②③④|
⑬③⑧⑥ |⑤⑥⑦⑧|
⑪⑦②⑭ |⑨⑩⑪⑫|
⑤⑨⑩④ |⑬-⑭-|
86
⑬①④⑭ |①②③④|
口③⑩⑥ |⑤⑥⑦⑧|
⑪⑦②口 |⑨⑩⑪⑫|
⑤⑨⑫⑧ |⑬-⑭-|
87
口口③⑤ |①---|
②①④口 |②-③-|
口④①② |--④-|
口③口⑤ |--⑤-|
88
①口口口 |①---|
②口口口 |②③④-|
口口口③
①④口口

⑧口⑤⑦
口⑥口口
口⑤口口 |⑤-⑥-|
⑧口⑥⑦ |⑦-⑧-|
89
⑩②⑤⑨ |①-②③|
⑥口①③ |④-⑤⑥|
④口①⑦ |⑦-⑧-|
⑩⑧⑧⑨ |⑨-⑩-|
90
⑩②⑤⑨ |①-②③|
口⑥①③ |④-⑤⑥|
④口①⑦ |⑦-⑧-|
⑩⑧⑧⑨ |⑨-⑩-|
91
口④⑦⑮ |①②③-|
⑫⑧①⑤ |④⑤⑥⑦|
⑥②③⑨ |⑧⑨⑩⑪|
⑭⑩⑬⑪ |⑫⑬⑭⑮|
92
①③③口 |①-②-|
⑤口口⑤ |--③-|
④②②④ |④---|
口⑥⑥口 |⑤-⑥-|
93
①口口① |--①-|
口④③口 |②---|
③口口④ |③---|
②口口② |④---|
94
①口口① |①---|
口口口口 |----|
口①①口 |----|
口口口口 |----|

不確定度: 0

最終更新:2014年08月01日 23:57