Ray
源屋

EXTREME

Level: 9
BPM: 175
Notes: 642

1
口口口口 |----|
口口口口 |----|
口口口口 |----|
口口口口 |----|
2
口②①① |①-②-|
口④③口 |③-④⑤|
口口⑤⑤ |--⑥-|
⑥⑥口口 |----|
3
口②①① |①-②-|
口口③口 |③-④⑤|
口④⑤⑤
口口口口

口口⑧口
口⑦口口
口口口口 |--⑥-|
⑥⑥口口 |⑦-⑧-|
4
①②口口 |①-②-|
口口④③ |③-④-|
⑤⑥口口 |⑤-⑥-|
⑨⑩⑧⑦ |⑦⑧⑨⑩|
5
⑤口①⑤ |--①-|
口②口③ |②-③-|
⑤④口⑤ |--④-|
口口口口 |⑤---|
6
口③②口 |①-②-|
①口⑧④ |③-④-|
⑦⑤⑥口 |⑤-⑥-|
口口口口 |⑦-⑧-|
7
⑥口口⑥ |①-②-|
口①口口 |③-④-|
⑤口口⑤ |--⑤-|
口③④② |--⑥-|
8
口②③口 |①-②-|
④⑥⑧① |③-④-|
口⑧⑤⑦ |⑤-⑥-|
口口口口 |⑦-⑧-|
9
③①口② |--①-|
口口口④ |--②-|
④口口口 |--③-|
②口①③ |--④-|
10
口③②口 |①-②-|
口①⑧口 |③-④-|
⑦⑤⑥④ |⑤-⑥-|
口口口口 |⑦-⑧-|
11
⑥口口⑥ |①-②-|
口①口口 |③-④-|
⑤口口⑤ |--⑤-|
口③④② |--⑥-|
12
口口口口 |①-②-|
①②④③ |③-④-|
⑤⑥口口 |⑤-⑥-|
⑨⑩⑧⑦ |⑦⑧⑨⑩|
13
①口口① |①-②-|
口②口④ |③-④-|
口口③口 |----|
⑤⑤口口 |⑤---|
14
①①①① |①---|
口口④④ |②-③-|
口口③③ |④---|
⑤⑤②② |--⑤-|
15
②②口口 |①--②|
⑤⑥口口 |--③-|
①①④③ |④-⑤-|
口口口⑦ |⑥-⑦-|
16
④④口口 |①--②|
口口③口 |--③-|
②口口口 |④---|
口口①口 |----|
17
①口③口 |----|
④②口口 |--①-|
④口口口 |②--③|
口口口口 |--④-|
18
口口口口 |①---|
口口口口 |②---|
④③口口 |③---|
口口②① |④---|
19
口口④⑤ |①---|
③口⑥⑦ |②-③-|
⑥④②① |④-⑤-|
口口口口 |⑥-⑦-|
20
口口口口 |①---|
③①口口 |②-③-|
口口口口
口口②①

口⑥⑦口
口⑧⑨口
口口⑤④ |④-⑤-|
口④口口 |⑥⑦⑧⑨|
21
口口口口 |--①-|
⑤口口⑤ |②-③-|
口①口③ |--④-|
⑤④②⑤ |⑤---|
22
③口②③ |①---|
口①②口 |②---|
口口口口 |③---|
口口口口 |----|
23
⑤⑤④口 |①-②-|
③口⑥口 |--③-|
口口口① |--④-|
口口②口 |⑤-⑥-|
24
口口⑥口 |①---|
②③口口 |--②-|
口①⑤④ |③-④-|
口⑥口口 |⑤-⑥-|
25
②①⑤⑤ |--①-|
口口④④ |--②-|
口口③③ |--③-|
口口①② |④-⑤-|
26
口口口口 |①--②|
①口口口 |--③-|
②②口口 |----|
①口③③ |----|
27
口口①口 |①--②|
口口②② |--③-|
口口①③
口口口口

口口口口
口口口口
④④⑦口 |④-⑤-|
⑥⑥口⑤ |⑥-⑦-|
28
口⑤②口 |①--②|
③①④④ |--③-|
口口口口 |④-⑤-|
⑧⑨⑦⑥ |⑥⑦⑧⑨|
29
口口口口 |①---|
②口口② |----|
口①①口 |----|
②口口② |②---|
30
③①①④ |①---|
⑤口口口 |②-③-|
③②②④ |--④-|
口⑤口口 |--⑤-|
31
口④④口 |--①-|
口口口① |②-③-|
口②③口 |----|
②口①③ |--④-|
32
②⑥⑥③ |①---|
④①①⑤ |②-③-|
口②③口 |--④-|
口④⑤口 |⑤-⑥-|
33
②口口③ |--①-|
口②③口 |②-③-|
口口口口 |----|
①口口① |----|
34
⑥⑥⑤⑤ |①---|
④②③口 |②-③-|
①口口① |--④-|
④②③口 |⑤-⑥-|
35
口口口口 |----|
口②口① |--①-|
②④③口 |--②-|
④①口③ |③-④-|
36
①③口① |----|
③口口③ |--①-|
口口口口 |----|
②口口② |②-③-|
37
②口口② |--①-|
口③④⑤ |--②-|
①②口① |--③-|
口口①口 |④-⑤-|
38
③①①④ |①---|
⑤口口口 |②-③-|
③②②④ |--④-|
口⑤口口 |--⑤-|
39
④口口口 |--①-|
口④口① |②-③-|
口②③口 |----|
②口①③ |--④-|
40
口⑥④① |①---|
⑥⑤①⑥ |②-③-|
口②③口 |--④-|
②口口③ |⑤-⑥-|
41
②口口② |--①-|
口③口口 |--②-|
①②④① |--③-|
口⑤①口 |④-⑤-|
42
口①口口 |①---|
口口口① |----|
①口③口 |----|
口②①口 |②-③-|
43
口口口口 |--①-|
①口②口 |--②-|
口③口口 |--③-|
⑤口④⑤ |④-⑤-|
44
口①①口 |----|
口口③口 |--①-|
口②口口 |----|
口口口口 |②-③-|
45
口口口口 |①-②-|
①④口① |③-④-|
①口③①
口②口口

⑦口口⑦
口口口口
⑦⑥口⑦ |--⑤-|
口口⑤口 |⑥-⑦-|
46
口①口口 |----|
口口②口 |----|
口口口口 |----|
口口口口 |①-②-|
47
②口④口 |①--②|
⑤③口⑥ |--③-|
口①口口 |④--⑤|
口口口口 |--⑥-|
48
②口③口 |①--②|
口口①口 |--③-|
口口口口 |----|
口口口口 |----|
49
口口③口 |----|
口②口④ |--①-|
口口①口 |②--③|
口口口口 |--④-|
50
口口口口 |----|
①②口口 |----|
口口口口 |----|
口口口口 |①-②-|
51
②口①口 |--①-|
④口口③ |--②-|
口口口口 |--③-|
口口口口 |--④-|
52
口①口② |①---|
口口③口 |②-③-|
口口口口 |----|
口口口口 |----|
53
口口口口 |----|
口口口口 |----|
口口口口 |----|
口口口口 |----|
54
口①②口 |----|
口口口口 |----|
口口口口 |----|
口口口口 |①-②-|
55
⑤口口口 |①--②|
②①④⑥ |--③-|
口③口口 |④--⑤|
口口口口 |--⑥-|
56
口口①口 |①--②|
②口③口 |--③-|
口口口口 |----|
口口口口 |----|
57
口③口口 |----|
口口②④ |--①-|
口①口口 |②--③|
口口口口 |--④-|
58
口口口口 |----|
①②口口 |----|
口口口口 |----|
口口口口 |①-②-|
59
口口口口 |--①-|
口④口③ |--②-|
口②口① |--③-|
口口口口 |--④-|
60
口口口口 |①---|
口口①口 |②---|
②口口② |----|
口口口口 |----|
61
口口口口 |----|
①口①口 |----|
口①口① |----|
①口①口 |①---|
62
①①①① |①---|
口③口口 |②-③-|
口口②口
口口口口

口⑤口口
口口口口
口口口口 |--④-|
口口④口 |--⑤-|
63
口口口口 |--①-|
口口口② |②-③-|
①④③口 |----|
口口口口 |--④-|
64
口口口口 |①---|
口②①口 |②-③-|
口口③口 |--④-|
④⑤⑥口 |⑤-⑥-|
65
口口口口 |--①-|
口口口口 |②-③-|
口③②① |----|
口口口口 |----|
66
口①口② |①---|
①③口④ |②---|
④口③① |③---|
②口①口 |④---|
67
口①口② |①---|
①③口④ |②---|
④口③① |③---|
②口①口 |④---|
68
①②③④ |①-②-|
口口⑤口 |③-④-|
口⑥口口 |⑤-⑥-|
⑦⑧⑨⑩ |⑦⑧⑨⑩|
69
①①口口 |①---|
①①口口 |----|
口口口口 |----|
口口口口 |----|
70
①①①③ |①---|
口口口③ |②-③-|
口口口口
②②②②

⑤口口口
④⑤口口
④口口口 |--④-|
口口口口 |--⑤-|
71
④口口口 |--①-|
④口①口 |②-③-|
口②③① |----|
口②③口 |--④-|
72
口⑥⑤口 |①---|
口②⑤③ |②-③-|
②④③① |--④-|
口④⑥① |⑤-⑥-|
73
②口③① |--①-|
口④口⑤ |--②-|
⑤口④口 |--③-|
①③口② |④-⑤-|
74
口①口口 |①---|
口口①口 |----|
口①口口
口口①口

③③口口
②②口口
口口口口 |----|
口口口口 |②-③-|
75
⑤口口④ |--①-|
③口①① |--②-|
⑤口口④ |--③-|
③口②② |④-⑤-|
76
口①②口 |①-②-|
口③④口 |③-④-|
口⑤⑥口 |⑤-⑥-|
⑦⑧⑩⑨ |⑦⑧⑨⑩|
77
①②③① |①-②-|
①②③① |③-④-|
④⑤⑥④ |--⑤-|
⑦⑦⑦⑦ |⑥-⑦-|
78
口③②口 |①-②-|
口①⑧④ |③-④-|
⑦⑤⑥口 |⑤-⑥-|
口口口口 |⑦-⑧-|
79
口口⑤⑥ |①-②-|
口①口口 |③-④-|
口口⑤⑥ |--⑤-|
③④口② |--⑥-|
80
口口口口 |①-②-|
②③①口 |③-④-|
口口口口
口口口④

口口口口
口口⑧⑧
⑧⑧口⑦ |⑤-⑥-|
⑤⑥口口 |⑦-⑧-|
81
③①口② |--①-|
口①口④ |--②-|
④口①口 |--③-|
②口①③ |--④-|
82
口③②⑦ |①-②-|
①口口⑦ |③-④-|
⑦⑤⑥④ |⑤-⑥-|
⑦口口口 |⑦---|
83
口口⑤⑥ |①-②-|
口①口口 |③-④-|
口口⑤⑥ |--⑤-|
口③④② |--⑥-|
84
口口口口 |①-②-|
①②④③ |③-④-|
⑤⑥口口 |⑤-⑥-|
⑨⑩⑧⑦ |⑦⑧⑨⑩|
85
①⑤⑤① |①-②-|
口③④口 |③-④-|
口口②口 |----|
口口口口 |⑤---|
86
口口口口 |①---|
①口口① |----|
口①①口 |----|
①口口① |----|

不確定度: 0

最終更新:2014年08月02日 00:10