eternal reality
fripSide

EXTREME

Level: 8
BPM: 145
Notes: 493

1
口口口口 |----|
口口口口 |----|
口口口口 |----|
口口口口 |----|
2
口②口③ |①--②|
①口①口 |--③-|
口②口②
③口①口

口⑤口口
⑤口口口
口口口口 |----|
口口口④ |④-⑤-|
3
③口②④ |①--②|
⑤①口① |--③-|
②口②④ |----|
⑤①口③ |④-⑤-|
4
口②③口 |①--②|
⑥③①⑤ |--③-|
④①③口 |--④-|
口③②口 |⑤-⑥-|
5
②③④① |①---|
④①②③ |②---|
③②①④ |③---|
①④③② |④---|
6
④口口③ |①-②-|
口⑤口⑥ |③-④⑤|
口②口口 |----|
①口口① |--⑥-|
7
口⑥口④ |①-②-|
③口⑤⑦ |③-④⑤|
口⑧②口 |--⑥-|
①口口口 |⑦-⑧-|
8
口口口口 |①---|
口④②口 |--②-|
口口口口 |③---|
③③①① |--④-|
9
①③①③ |①-②-|
口口口口 |③-④-|
口口②口
口④口口

口口口口
⑤⑥⑤⑥
口口⑦口 |⑤---|
口口口口 |⑥-⑦-|
10
③口口④ |①-②-|
口口⑤口 |③-④⑤|
口⑥口② |----|
①口口口 |--⑥-|
11
④口口⑥ |①-②-|
口⑤口③ |③-④⑤|
②⑦口口 |--⑥-|
口口⑧① |⑦-⑧-|
12
①④①④ |①--②|
口口⑥口 |--③-|
⑤口⑥② |④--⑤|
③口口口 |--⑥-|
13
口口口口 |①---|
口①口口 |----|
口①口口
口口口口

④口口④
口④④口
②③②③ |②--③|
③②③② |--④-|
14
口口口口 |----|
口口口口 |----|
口口口口 |----|
口口口口 |----|
15
口口口① |①-②-|
口口②口 |③-④-|
口③口口
④口口口

口口口⑦
口口口口
口口口口 |⑤---|
口⑥口⑤ |⑥-⑦-|
16
①口口口 |①-②-|
口②口口 |③-④-|
口口③口 |⑤---|
⑤口口④ |----|
17
口①口口 |①-②-|
口口②口 |③-④-|
口③口口 |⑤---|
⑤⑦⑥④ |⑥-⑦-|
18
⑥⑥⑥⑥ |①-②-|
④口口① |③-④-|
②口口③ |⑤---|
⑤⑤⑤⑤ |⑥---|
19
⑦口口口 |①-②-|
①③③① |③-④-|
⑤口口⑤ |⑤---|
口④②⑥ |⑥-⑦-|
20
口①①⑥ |①-②-|
⑦③③② |③-④-|
④口口口 |⑤---|
口⑤⑤口 |⑥-⑦-|
21
口口口口 |①---|
口口⑥② |--②-|
口⑤①① |③-④-|
③③口④ |⑤-⑥-|
22
①①口口 |①---|
③口口② |--②-|
口口口口 |③---|
口③②口 |----|
23
口口口口 |①---|
口④口口 |----|
口②口③ |②--③|
①口口口 |--④-|
24
口口口① |①---|
④④口口 |----|
口③③口 |②--③|
口口②② |--④-|
25
口口①① |①---|
④④④口 |----|
口③③③ |②--③|
②②②口 |--④-|
26
②①②① |①--②|
口口口口 |--③-|
④⑤⑤③ |④---|
④口口③ |⑤---|
27
口①口① |①--②|
②口②口 |--③-|
口口口⑤ |④---|
④③④③ |--⑤-|
28
①口①口 |①--②|
口②口② |--③-|
口口口⑤ |④---|
③④③④ |--⑤-|
29
口口口② |①--②|
①③口口 |--③-|
口口④口 |④---|
口⑤⑤口 |⑤---|
30
①口②① |①---|
口口口口 |--②-|
②口口口
口口口口

④口口口
口口口③
口口口口 |③---|
口③口口 |--④-|
31
④④⑤① |①--②|
口②口⑤ |--③-|
⑥口①口 |-④--|
②⑥③③ |⑤-⑥-|
32
口②口③ |①--②|
①口①口 |--③-|
口②口②
③口①口

口⑤口口
⑤口口口
口口口口 |----|
口口口④ |④-⑤-|
33
③口②④ |①--②|
⑤①口① |--③-|
②口②④ |----|
⑤①口③ |④-⑤-|
34
口②③口 |①--②|
⑥③①⑤ |--③-|
④①③口 |--④-|
口③②口 |⑤-⑥-|
35
②口口① |①---|
口①②口 |②---|
口②①口
①口口②

口口③口
口④口③
③口口口 |③---|
口③口⑤ |④-⑤-|
36
口②口③ |①--②|
①口①口 |--③-|
口②口②
③口①口

口⑤口口
⑤口口口
口口口口 |----|
口口口④ |④-⑤-|
37
③口②④ |①--②|
⑤①口① |--③-|
②口②④ |----|
⑤①口③ |④-⑤-|
38
口②③口 |①--②|
⑥③①⑤ |--③-|
④①③口 |--④-|
口③②口 |⑤-⑥-|
39
①①口② |①---|
口口②口 |②---|
口②口口
②口①①

⑦口⑧口
口⑤口⑥
③口④口 |③④⑤⑥|
口⑨口⑩ |⑦⑧⑨⑩|
40
口②口③ |①--②|
①③①口 |--③-|
口②③②
③口①口

④⑥口口
⑥口口口
口口口口 |④---|
口口口⑤ |⑤-⑥-|
41
③④②⑤ |①--②|
⑥①③① |--③-|
②③②⑤ |④---|
⑥①口③ |⑤-⑥-|
42
口②③口 |①--②|
⑦③①⑥ |--③-|
⑤①③口 |④-⑤-|
口③②④ |⑥-⑦-|
43
②③④① |①---|
④①②③ |②---|
③②①④ |③---|
①④③② |④---|
44
④③口③ |①-②-|
口⑤口⑧ |③-④⑤|
⑦②口⑥ |⑥---|
①口口① |⑦-⑧-|
45
口⑦口④ |①-②-|
③口⑤⑧ |③-④⑤|
⑥⑨②口 |⑥-⑦-|
①口口口 |⑧-⑨-|
46
口口口口 |①---|
口⑥③口 |②-③-|
⑤口口② |④---|
④④①① |⑤-⑥-|
47
①③①③ |①-②-|
口口口口 |③-④-|
口口②口
口④口口

口口口口
⑤⑥⑤⑥
口口⑦口 |⑤---|
口口口口 |⑥-⑦-|
48
③口口④ |①-②-|
口口⑤口 |③-④⑤|
口口口②
①口口口

口口口口
口口口口
⑥⑧口⑦ |⑥---|
口口口口 |⑦-⑧-|
49
④口口⑦ |①-②-|
口⑤口③ |③-④⑤|
②⑧口⑥ |⑥-⑦-|
口口⑨① |⑧-⑨-|
50
①④①④ |①--②|
口口⑥口 |--③-|
⑤口⑥② |④--⑤|
③口口口 |--⑥-|
51
口口④口 |①-②-|
口①口② |③-④-|
口①口口
口③口口

⑪口口⑫
⑨口口⑩
⑦口口⑧ |⑤⑥⑦⑧|
⑤口口⑥ |⑨⑩⑪⑫|
52
口口口口 |①---|
口口口口 |----|
口口口口 |----|
口①①口 |----|

不確定度: 0

最終更新:2014年08月01日 23:53