ZED
USAO

BASIC

Level: 4
BPM: 190
Notes: 331

1
口口口口 |----|
口口口口 |----|
口口口口 |----|
口口口口 |----|
2
口①口口 |①---|
口口②口 |--②-|
口口口③ |----|
口口口口 |③---|
3
口口口口 |----|
口口口口 |----|
口口口口 |----|
口口口口 |----|
4
口口口口 |①---|
口口③口 |--②-|
口②口口 |----|
①口口口 |③---|
5
口口口口 |----|
口口口口 |----|
口口口口 |----|
口口口口 |----|
6
口口①口 |①---|
口②口口 |--②-|
③口口口 |----|
口口口口 |③---|
7
口口口口 |----|
口口口口 |----|
口口口口 |----|
口口口口 |----|
8
口口口口 |①---|
口③口口 |--②-|
口口②口 |----|
口口口① |③---|
9
口口口口 |----|
口口口口 |----|
口口口口 |----|
口口口口 |----|
10
①①口口 |①---|
口②②口 |--②-|
口口③③ |----|
口口口口 |③---|
11
口口口口 |----|
口口口口 |----|
口口口口 |----|
口口口口 |----|
12
口口口口 |①---|
口口③③ |--②-|
口②②口 |----|
①①口口 |③---|
13
口口口口 |----|
口口口口 |----|
口口口口 |----|
口口口口 |----|
14
口口①① |①---|
口②②口 |--②-|
③③口口 |----|
口口口口 |③---|
15
口口口口 |----|
口口口口 |----|
口口口口 |----|
口口口口 |----|
16
口口口口 |①---|
③③口口 |--②-|
口②②口 |----|
口口①① |③---|
17
口口口口 |----|
口口口口 |----|
口口口口 |----|
口口口口 |----|
18
口口①① |①---|
口口口口 |----|
口口口口 |----|
口口口口 |----|
19
①①口口 |①---|
口口口口 |----|
口②口口 |----|
口口口口 |②---|
20
口口①① |①---|
口口口口 |----|
口口口口 |----|
口口口口 |----|
21
①①口口 |①---|
口口口口 |----|
口口②口 |----|
口口口口 |②---|
22
口口口口 |①---|
口口口口 |----|
口口口口 |----|
①①口口 |----|
23
口口口口 |①---|
口②口口 |----|
口口口口 |----|
口口①① |②---|
24
②口口① |①---|
④口口③ |②---|
口口口口 |③---|
口口口口 |④---|
25
口口口口 |①---|
口口口口 |②---|
②口口① |③---|
④口口③ |④---|
26
口②①口 |①---|
口④③口 |②---|
口口口口 |③---|
口口口口 |④---|
27
口口口口 |①---|
口口口口 |②---|
口②①口 |③---|
口④③口 |④---|
28
②②①① |①---|
④④③③ |②---|
口口口口 |③---|
口口口口 |④---|
29
口口口口 |①---|
口口口口 |----|
口①①口 |----|
口口口口 |----|
30
口口口② |①---|
口口口② |----|
口口口口 |②---|
①口口口 |----|
31
口口口口 |①---|
③②①口 |②---|
口口口口 |③---|
口口口口 |----|
32
②口口口 |①---|
②口口口 |----|
口口口口 |②---|
口口口① |----|
33
口口口口 |①---|
口①②③ |②---|
口口口口 |③---|
口口口口 |----|
34
口口②口 |①---|
口口②口 |----|
口口口口 |②---|
口①口口 |----|
35
口口口口 |①---|
口口口口 |②---|
③②①口 |③---|
口口口口 |----|
36
口口①① |①---|
口②②口 |--②-|
③③口口 |----|
口口口口 |③---|
37
口口口口 |①---|
口口口口 |----|
口口口口 |②---|
口②①口 |----|
38
②口口口 |①---|
②口口口 |----|
口口口口 |②---|
口口口① |----|
39
口口口口 |①---|
口①②③ |②---|
口口口口 |③---|
口口口口 |----|
40
口口口② |①---|
口口口② |----|
口口口口 |②---|
①口口口 |----|
41
口口口口 |①---|
③②①口 |②---|
口口口口 |③---|
口口口口 |----|
42
口②口口 |①---|
口②口口 |----|
口口口口 |②---|
口口①口 |----|
43
口口口口 |①---|
口口口口 |②---|
口①②③ |③---|
口口口口 |----|
44
①①口口 |①---|
口②②口 |--②-|
口口③③ |----|
口口口口 |③---|
45
口口口口 |①---|
口口口口 |----|
口口口口 |②---|
口①②口 |----|
46
口口口口 |①---|
口口口② |----|
口口口② |②---|
①口口口 |----|
47
口口口口 |①---|
③②①口 |②---|
口口口口 |③---|
口口口口 |----|
48
口口口口 |①---|
②口口口 |----|
②口口口 |②---|
口口口① |----|
49
口口口口 |①---|
口①②③ |②---|
口口口口 |③---|
口口口口 |----|
50
口口②② |①---|
口口口口 |----|
口口口口 |②---|
口①口口 |----|
51
口口口口 |①---|
口口①口 |②---|
口口②口 |③---|
口口③口 |----|
52
①①口口 |①---|
口②②口 |--②-|
口口③③ |----|
口口口口 |③---|
53
口口口口 |①---|
口口口口 |----|
口口口口 |②---|
口①②口 |----|
54
①①口口 |①---|
口口口口 |----|
口口口口 |----|
口口口口 |----|
55
口口①① |①---|
口口口口 |----|
口口②口 |----|
口口口口 |②---|
56
①①口口 |①---|
口口口口 |----|
口口口口 |----|
口口口口 |----|
57
口口①① |①---|
口口口口 |----|
口口②口 |----|
口口口口 |②---|
58
口口口口 |①---|
口口口口 |----|
口口口口 |----|
①①口口 |----|
59
口口口口 |①---|
口口②口 |----|
口口口口 |----|
口口①① |②---|
60
①①口口 |①---|
口口口口 |----|
口口口口 |----|
口口口口 |----|
61
口口①① |①---|
口口口口 |----|
口口口口 |----|
口口口口 |----|
62
口①②口 |①---|
口口口口 |----|
口口口口 |②---|
口口口口 |----|
63
口口口口 |①---|
口①②口 |----|
口口口口 |②---|
口口口口 |----|
64
口口口口 |①---|
口口口口 |----|
①口口② |②---|
口口口口 |----|
65
口口口口 |①---|
口口口口 |----|
口口口口 |②---|
①口口② |----|
66
口口口口 |①---|
口口口口 |②---|
口③④口 |③---|
口①②口 |④---|
67
③口口④ |①---|
①口口② |②---|
口口口口 |③---|
口口口口 |④---|
68
口口口口 |①---|
口口口口 |②---|
③口口④ |③---|
①口口② |④---|
69
口③④口 |①---|
口①②口 |②---|
口口口口 |③---|
口口口口 |④---|
70
①口口① |①---|
②口口② |②---|
③口口③ |③---|
④口口④ |④---|
71
口①①口 |①---|
口②②口 |②---|
口③③口 |③---|
口④④口 |④---|
72
①口口① |①---|
②口口② |②---|
③口口③ |③---|
④口口④ |④---|
73
口口口口 |①---|
口①①口 |----|
口①①口 |----|
口口口口 |----|
74
口口口口 |①---|
③口口② |②---|
①口口④ |③---|
口口口口 |④---|
75
口口口口 |①---|
口③②口 |②---|
口①④口 |③---|
口口口口 |④---|
76
口③②口 |①---|
口口口口 |②---|
口口口口 |③---|
口①④口 |④---|
77
③口口② |①---|
口口口口 |②---|
口口口口 |③---|
①口口④ |④---|
78
口口口口 |①---|
口③②口 |②---|
口①④口 |③---|
口口口口 |④---|
79
口口口口 |①---|
③口口② |②---|
①口口④ |③---|
口口口口 |④---|
80
口口②口 |①---|
口③口口 |②---|
口口④口 |③---|
口①口口 |④---|
81
③口口口 |①---|
口口口② |②---|
①口口口 |③---|
口口口④ |④---|
82
口口①① |①---|
口口口口 |②---|
口②③口 |③---|
口口口口 |----|
83
①①口口 |①---|
口③②口 |②---|
口口④口 |③---|
口口口口 |④---|
84
①①口口 |①---|
口口口口 |②---|
③口口② |③---|
口口口口 |----|
85
口口①① |①---|
口④口口 |②---|
口②③口 |③---|
口口口口 |④---|
86
口口口口 |①---|
②口口③ |②---|
口口口口 |③---|
口口①① |----|
87
口口口口 |①---|
口口④口 |②---|
口③②口 |③---|
①①口口 |④---|
88
①①口口 |①---|
口口口口 |②---|
口③②口 |③---|
口口口口 |----|
89
口口①① |①---|
口②③口 |②---|
口④口口 |③---|
口口口口 |④---|
90
口口①① |①---|
口口口口 |②---|
②口口③ |③---|
口口口口 |----|
91
①①口口 |①---|
口③②口 |②---|
口口④口 |③---|
口口口口 |④---|
92
①①口口 |①---|
口口口口 |②---|
③口口② |③---|
口口口口 |----|
93
口口①① |①---|
口②③口 |②---|
口④口口 |③---|
口口口口 |④---|
94
口口口口 |①---|
②口口③ |②---|
口口口口 |③---|
口口①① |----|
95
口口口口 |①---|
口口④口 |②---|
口③②口 |③---|
①①口口 |④---|
96
①①口口 |①---|
③口口② |②---|
口口口④ |③---|
口口口口 |④---|
97
口口①① |①---|
口②③口 |②---|
口④口口 |③---|
口口口口 |④---|


不確定度: 0

最終更新:2013年11月11日 13:55