ZED
USAO

ADVANCED

Level: 8
BPM: 190
Notes: 557

1
口口口口 |----|
口口口口 |----|
口口口口 |----|
口口口口 |----|
2
口口①口 |①---|
口②口口 |--②-|
③口口口 |----|
口口口口 |③---|
3
口口口口 |----|
口口口口 |----|
口口口口 |----|
口口口口 |----|
4
口口口③ |①---|
口口口口 |--②-|
口口②口 |----|
口①口口 |③---|
5
口口口口 |----|
口口口口 |----|
口口口口 |----|
口口口口 |----|
6
口①口口 |①---|
口口②口 |--②-|
口口口③ |----|
口口口口 |③---|
7
口口口口 |----|
口口口口 |----|
口口口口 |----|
口口口口 |----|
8
口口口口 |①---|
③口口口 |--②-|
口②口口 |----|
口口①口 |③---|
9
口口口口 |----|
口口口口 |----|
口口口口 |----|
口口口口 |----|
10
口①口① |①---|
②口②口 |--②-|
口口口口 |----|
口③口③ |③---|
11
口口口口 |----|
口口口口 |----|
口口口口 |----|
口口口口 |----|
12
③口③口 |①---|
口口口口 |--②-|
口②口② |----|
①口①口 |③---|
13
口口口口 |----|
口口口口 |----|
口口口口 |----|
口口口口 |----|
14
①口①口 |①---|
口②口② |--②-|
口口口口 |----|
③口③口 |③---|
15
口口口口 |----|
口口口口 |----|
口口口口 |----|
口口口口 |----|
16
口③口③ |①---|
口口口口 |--②-|
②口②口 |----|
口①口① |③---|
17
口口口口 |----|
口口口口 |----|
口口口口 |----|
口口口口 |----|
18
①口口口 |①---|
②口口口 |--②-|
口③口口 |----|
口口口口 |③---|
19
口口口① |①---|
口③口② |--②-|
口口④口 |----|
口口口口 |③-④-|
20
①口口口 |①---|
②口口口 |--②-|
口③口口 |----|
口口口口 |③---|
21
口口口① |①---|
口口口② |--②-|
口③口口 |----|
口口口口 |③---|
22
口口口口 |①---|
口口口口 |--②-|
口口③② |----|
口口口① |③---|
23
①口口口 |①---|
②口③口 |--②-|
口④口口 |----|
口口口口 |③-④-|
24
口口口① |①---|
口口口② |--②-|
口口③口 |----|
口口口口 |③---|
25
①口口口 |①---|
②口口口 |--②-|
口③口口 |----|
口口口口 |③---|
26
口②①口 |①---|
口④③口 |②---|
口口口口 |③---|
口口口口 |④---|
27
②口口① |①-②-|
④口口③ |③-④-|
⑥口口⑤ |⑤-⑥-|
⑧口口⑦ |⑦-⑧-|
28
口⑧口口 |①-②-|
⑥④①口 |③-④-|
口②③⑤ |⑤-⑥-|
口口⑦口 |⑦-⑧-|
29
①口①③ |①---|
口口③口 |②---|
口③口口 |③---|
③②口② |----|
30
口④口③ |①---|
口①⑤口 |--②-|
口⑥①口 |③---|
②口口口 |④-⑤-⑥-|
31
③口口口 |①---|
口口④④ |--②-|
口口口口 |③---|
口口①② |④---|
32
④口口口 |①--②|
⑤口口口 |--③-|
①②③口 |④---|
①②③口 |⑤---|
33
口③②① |①--②|
口③②① |--③-|
⑤⑤口口 |④---|
口口口④ |⑤---|
34
口口④③ |①---|
口⑤口口 |--②-|
口口⑥口 |③---|
②口①口 |④-⑤-⑥-|
35
③口口口 |①---|
口口口口 |--②-|
口口④④ |③---|
口①口② |④---|
36
口①口① |①---|
②口②口 |--②-|
口口口口 |----|
口③口③ |③---|
37
口口口口 |----|
口口口口 |----|
①口①口 |①---|
口口口口 |----|
38
口口口口 |①---|
口①①口 |--②-|
口口口口
②口口口

口④口③
口口⑤口
口⑥口口 |③---|
口口口口 |④-⑤-⑥-|
39
③口口口 |①---|
口口④④ |--②-|
口口口口 |③---|
口口①② |④---|
40
④口口口 |①--②|
⑤口口口 |--③-|
①②③口 |④---|
①②③口 |⑤---|
41
口③②① |①--②|
口③②① |--③-|
⑤⑤口口 |④---|
口口口④ |⑤---|
42
口口④③ |①---|
口⑤口口 |--②-|
口口⑥口 |③---|
②口①口 |④-⑤-⑥-|
43
③口口口 |①---|
口口口口 |--②-|
口口④④ |③---|
口①口② |④---|
44
口①口① |①---|
②口②口 |--②-|
口口口口 |----|
口③口③ |③---|
45
口口口口 |----|
口口口口 |----|
①口①口 |①---|
口口口口 |----|
46
口②③② |①---|
④①①口 |----|
口口口⑤ |②---|
口口口口 |③-④-⑤-|
47
口口口③ |①---|
口口口口 |--②-|
口④④口 |③---|
②①口口 |④---|
48
①②③⑤ |①--②|
①②③口 |--③-|
口口口口 |④---|
④口口口 |⑤---|
49
⑤口口口 |①--②|
口口④口 |--③-|
口③②① |④---|
口③②① |⑤---|
50
口③②② |①---|
口口口④ |----|
⑤口口口 |②---|
①口口① |③-④-⑤-|
51
口口口③ |①---|
口口口口 |--②-|
口④④口 |③---|
②口①口 |④---|
52
①口①口 |①---|
口②口② |--②-|
口口口口 |----|
③口③口 |③---|
53
口口口口 |----|
口③④口 |----|
口①②口 |①-②-|
口口口口 |③-④-|
54
①口口口 |①---|
②口口口 |--②-|
口③口口 |----|
口口口口 |③---|
55
口口口① |①---|
口③口② |--②-|
口口④口 |----|
口口口口 |③-④-|
56
①口口口 |①---|
②口口口 |--②-|
口口口口 |----|
口口口口 |----|
57
口口口① |①---|
口口口② |--②-|
口③口口 |----|
口口口口 |③---|
58
口口口口 |①---|
口口口口 |--②-|
口口口② |----|
口口口① |----|
59
①口口口 |①---|
②口③口 |--②-|
口④口口 |----|
口口口口 |③-④-|
60
口口口① |①---|
口口口② |--②-|
口口口口 |----|
口口口口 |----|
61
口口口口 |①---|
口口口口 |②---|
口③④口 |③---|
口①②口 |④---|
62
①口口口 |①---|
②口③口 |②-③-|
④口口口 |④---|
⑤口口口 |⑤---|
63
口口口① |①---|
口③口② |②-③-|
口口口④ |④---|
口口口⑤ |⑤---|
64
⑤口口口 |①---|
④口口口 |②-③-|
②口③口 |④---|
①口口口 |⑤---|
65
口口口⑤ |①---|
口口口④ |②-③-|
口③口② |④---|
口口口① |⑤---|
66
①口口口 |①---|
②口③口 |②-③-|
④口口口 |④---|
⑤口口口 |⑤---|
67
口口口① |①---|
口③口② |②-③-|
口口口④ |④---|
口口口⑤ |⑤---|
68
口①②口 |①---|
口③④口 |②---|
口口口口 |③---|
口口口口 |④---|
69
口口口口 |①---|
口口口口 |②---|
口①②口 |③---|
口③④口 |④---|
70
①口口② |①-②-|
③口口④ |③-④-|
⑤口口⑥ |⑤-⑥-|
⑦口口⑧ |⑦-⑧-|
71
口①②口 |①-②-|
口③④口 |③-④-|
口⑤⑥口 |⑤-⑥-|
口⑦⑧口 |⑦-⑧-|
72
①口口② |①-②-|
③口口④ |③-④-|
⑤口口⑥ |⑤-⑥-|
⑦口口⑧ |⑦-⑧-|
73
口口口口 |①---|
口①①口 |----|
口②②口 |②---|
口口口口 |----|
74
口口④③ |①-②-|
⑤⑥口口 |③-④-|
口口⑧⑦ |⑤-⑥-|
①②口口 |⑦-⑧-|
75
①②口口 |①-②-|
口口⑧⑦ |③-④-|
⑤⑥口口 |⑤-⑥-|
口口④③ |⑦-⑧-|
76
①口⑧口 |①-②-|
②口⑦口 |③-④-|
口⑤口④ |⑤-⑥-|
口⑥口③ |⑦-⑧-|
77
口⑤口④ |①-②-|
口⑥口③ |③-④-|
①口⑧口 |⑤-⑥-|
②口⑦口 |⑦-⑧-|
78
⑤⑥口口 |①-②-|
口口④③ |③-④-|
口口⑧⑦ |⑤-⑥-|
①②口口 |⑦-⑧-|
79
口口口口 |①-②-|
⑤⑥④③ |③-④-|
①②⑧⑦ |⑤-⑥-|
口口口口 |⑦-⑧-|
80
①口①口 |①-②-|
口口口② |③-④-|
口③口口
④口④口

口⑥⑧⑤
口口口口
⑦口⑦口 |⑤-⑥-|
口口口口 |⑦-⑧-|
81
口口口口 |①-②-|
①②⑧⑦ |③-④-|
口口口口 |⑤-⑥-|
⑤⑥④③ |⑦-⑧-|
82
①①口口 |①-②-|
④④口口 |③-④-|
口②③⑤ |⑤-⑥-|
⑥⑦⑧口 |⑦-⑧-|
83
口口①① |①-②-|
⑤口④④ |③-④-|
②⑥口⑦ |⑤-⑥-|
口⑧口③ |⑦-⑧-|
84
①①口口 |①-②-|
④④⑤口 |③-④-|
⑥口②口 |⑤-⑥-|
③⑧口⑦ |⑦-⑧-|
85
口口①① |①-②-|
⑤⑥④④ |③-④-|
⑦⑧②口 |⑤-⑥-|
③口口口 |⑦-⑧-|
86
口口口⑥ |①-②-|
⑤口⑧口 |③-④-|
⑦口④④ |⑤-⑥-|
②③①① |⑦-⑧-|
87
①①口口 |①-②-|
④④口口 |③-④-|
⑥⑧口⑤ |⑤-⑥-|
③口⑦② |⑦-⑧-|
88
口口①① |①-②-|
口口④④ |③-④-|
⑤口⑧⑥ |⑤-⑥-|
②⑦口③ |⑦-⑧-|
89
①①口口 |①-②-|
④④口口 |③-④-|
⑥口⑦⑤ |⑤-⑥-|
③⑧②口 |⑦-⑧-|
90
②口①① |①-②-|
口口④④ |③-④-|
口⑦口⑥ |⑤-⑥-|
⑤口⑧③ |⑦-⑧-|
91
①①口口 |①-②-|
④④口口 |③-④-|
②⑦口⑤ |⑤-⑥-|
⑥口⑧③ |⑦-⑧-|
92
口口①① |①-②-|
口口④④ |③-④-|
②口⑧⑥ |⑤-⑥-|
⑤⑦口③ |⑦-⑧-|
93
①①口③ |①-②-|
④④口⑦ |③-④-|
②⑧口⑤ |⑤-⑥-|
⑥口口口 |⑦-⑧-|
94
②口口⑥ |①-②-|
⑤口⑧口 |③-④-|
⑦口④④ |⑤-⑥-|
口③①① |⑦-⑧-|
95
①①口口 |①-②-|
④④口口 |③-④-|
⑥口⑦⑤ |⑤-⑥-|
③⑧②口 |⑦-⑧-|
96
口口①① |①-②-|
口口④④ |③-④-|
口口口口
③口口②

口⑦⑧口
⑤口口口
口口口⑥ |⑤-⑥-|
口口口口 |⑦-⑧-|
97
⑤口口⑨ |①-②-|
⑥口口⑩ |③-④-|
⑦③④⑪ |⑤⑥⑦⑧|
⑧①②⑫ |⑨⑩⑪⑫|
98
口口口口 |①---|
口①①口 |----|
口口口口 |----|
口口口口 |----|


不確定度: 0

最終更新:2013年11月11日 13:55