WAVES; Q;indivi+WISE
Q;indivi+

BASIC

Level: 1
BPM: 127
Notes: 162

1
口口口口 |----|
口口口口 |----|
口口口口 |----|
口口口口 |----|
2
口口口口 |①---|
口口①口 |----|
口口口口 |----|
口口口口 |----|
3
口口口口 |①---|
口①口口 |----|
口口口口 |----|
口口口口 |----|
4
口口口口 |①---|
口②①口 |----|
口口口口 |②---|
口口口口 |----|
5
口口口口 |①---|
口口口口 |----|
口②①口 |②---|
口口口口 |----|
6
口口口口 |①---|
①②口口 |----|
口口口口 |②---|
口口口口 |----|
7
口口口口 |①---|
口口①口 |----|
口口②③ |②---|
口口口口 |③---|
8
口口口口 |①---|
口口②① |----|
口口口口 |②---|
口口口口 |----|
9
口口口口 |①---|
口①口口 |----|
③②口口 |②---|
口口口口 |③---|
10
口口口口 |①---|
口口口口 |----|
口口口口 |②---|
①②口口 |----|
11
口口口口 |①---|
口口口口 |----|
口口②③ |②---|
口口①口 |③---|
12
口口口口 |①---|
口口口口 |----|
口口口口 |②---|
口口②① |----|
13
口口口口 |①---|
口口口口 |----|
③②口口 |②---|
口①口口 |③---|
14
口口口口 |①---|
①②口口 |----|
口口口口 |②---|
口口口口 |----|
15
口口②③ |①---|
口口①口 |----|
口口口口 |②---|
口口口口 |③---|
16
口口口口 |①---|
口口②① |----|
口口口口 |②---|
口口口口 |----|
17
③②口口 |①---|
口①口口 |----|
口口口口 |②---|
口口口口 |③---|
18
口口口口 |①---|
①②口口 |----|
口口口口 |②---|
口口口口 |----|
19
口口口口 |①---|
口口①口 |----|
口②③口 |②---|
口口口口 |③---|
20
口口口口 |①---|
口口口口 |----|
口口口① |----|
口口口口 |----|
21
口口口口 |①---|
口①②口 |②---|
口③④口 |③---|
口口口口 |④---|
22
口口口口 |①---|
口口口③ |②---|
口口口② |③---|
口口口① |----|
23
口口①口 |①---|
口口②口 |②---|
口口③口 |③---|
口口口口 |----|
24
口口口口 |①---|
口③口口 |②---|
口②口口 |③---|
口①口口 |----|
25
①口口口 |①---|
②口口口 |②---|
③口口口 |③---|
口口口口 |----|
26
口口口口 |①---|
口口口口 |②---|
口口口口 |③---|
口①②③ |----|
27
口口口口 |①---|
口口口口 |②---|
③②①口 |③---|
口口口口 |----|
28
口口口口 |①---|
口①②③ |②---|
口口口口 |③---|
口口口口 |----|
29
③②①口 |①---|
口口口口 |②---|
口口口口 |③---|
口口口口 |----|
30
口口①口 |①---|
口口②口 |----|
口口口口 |②---|
口口口口 |----|
31
口口口口 |①---|
口口口口 |②---|
口①②③ |③---|
口口口口 |----|
32
口①口口 |①---|
口②口口 |----|
口口口口 |②---|
口口口口 |----|
33
口口口口 |①---|
口口口口 |②---|
③②①口 |③---|
口口口口 |----|
34
口口口口 |①---|
口口口口 |----|
口口②口 |②---|
口口①口 |----|
35
口口口口 |①---|
口①②③ |②---|
口口口口 |③---|
口口口口 |----|
36
口口口口 |①---|
口口口口 |----|
口②口口 |②---|
口①口口 |----|
37
口口口口 |①---|
③②①口 |②---|
口口口口 |③---|
口口口口 |----|
38
口①①口 |①---|
口口口口 |----|
口口口口 |----|
口口口口 |----|
39
口口口口 |①---|
口③②① |②---|
口口口口 |③---|
口口口口 |----|
40
口口口口 |①---|
口口口口 |----|
口①①口 |----|
口口口口 |----|
41
口口口口 |①---|
口口口口 |②---|
口口口口 |③---|
①②③口 |----|
42
口口口口 |①---|
口口口口 |----|
口①①口 |----|
口口口口 |----|
43
口口口口 |①---|
口③②① |②---|
口口口口 |③---|
口口口口 |----|
44
口①①口 |①---|
口②②口 |----|
口口口口 |②---|
口口口口 |----|
45
口口口口 |①---|
口口口口 |----|
口①①口 |②---|
口②②口 |----|
46
口口口口 |----|
口口口口 |----|
口口口口 |----|
口口口口 |----|
47
口口口口 |----|
口口口口 |----|
口口口口 |----|
口口口口 |----|
48
口口口口 |①---|
①②口口 |----|
口口口口 |②---|
口口口口 |----|
49
口口口口 |①---|
口口①口 |----|
口口②③ |②---|
口口口口 |③---|
50
口口口口 |①---|
口口②① |----|
口口口口 |②---|
口口口口 |----|
51
口口口口 |①---|
口①口口 |----|
③②口口 |②---|
口口口口 |③---|
52
口口口口 |①---|
口口口口 |----|
口口口口 |②---|
①②口口 |----|
53
口口口口 |①---|
口口口口 |----|
口口②③ |②---|
口口①口 |③---|
54
口口口口 |①---|
口口口口 |----|
口口口口 |②---|
口口②① |----|
55
口口④口 |①---|
口③口口 |②---|
口口②口 |③---|
口①口口 |④---|
56
口口口① |①---|
口口口② |②---|
口口口③ |③---|
口口口④ |④---|
57
口口口口 |①---|
口口③口 |②---|
口口②口 |③---|
口口①口 |----|
58
①口口口 |①---|
②口口口 |②---|
③口口口 |③---|
④口口口 |④---|
59
口口口口 |①---|
口③口口 |②---|
口②口口 |③---|
口①口口 |----|
60
口①①口 |①---|
口②②口 |----|
口口口口 |②---|
口口口口 |----|
61
口口口口 |①---|
口口口口 |----|
口①①口 |②---|
口②②口 |----|
62
口口口口 |①---|
口口口口 |----|
①口口① |----|
口口口口 |----|
63
口④口口 |①---|
口口③口 |②---|
口②口口 |③---|
口口①口 |④---|


不確定度: 0

タグ:

+ タグ編集
  • タグ:

このサイトはreCAPTCHAによって保護されており、Googleの プライバシーポリシー利用規約 が適用されます。

最終更新:2013年04月07日 23:14