ほしふり
Sana

BASIC

Level: 4
BPM: 155
Notes: 225

1
口口口口 |----|
口口口口 |----|
口口口口 |----|
口口口口 |----|
2
口口口口 |①---|
③口口口 |--②-|
口口口口 |----|
①口口② |--③-|
3
口口口口 |----|
口口口① |--①-|
口口口口 |----|
口口口口 |----|
4
口①①口 |①---|
口口口口 |--②-|
②口口② |----|
口③口口 |--③-|
5
口口口口 |----|
口口口口 |----|
口口口口 |----|
口口口口 |----|
6
口口口口 |①---|
③口口口 |--②-|
口口口口 |----|
①口口② |--③-|
7
口口口口 |----|
口口口① |--①-|
口口口口 |----|
口口口口 |----|
8
口①①口 |①---|
口口口口 |----|
②口口② |②---|
口口口口 |----|
9
①口口① |①---|
口口口口 |----|
口口口口 |----|
口口口口 |----|
10
口口口口 |①---|
①①②② |----|
口口口口 |②---|
口口口口 |----|
11
口口口口 |①---|
口口口口 |②---|
口口口口 |③---|
①②③④ |④---|
12
口口口口 |①---|
口口口口 |----|
①①②② |②---|
口口口口 |----|
13
①②③④ |①---|
口口口口 |②---|
口口口口 |③---|
口口口口 |④---|
14
口口口口 |①---|
①①②② |----|
口口口口 |②---|
口口口口 |----|
15
口口口口 |①---|
口口口口 |②---|
口口口口 |③---|
①②③④ |④---|
16
口口口口 |①---|
口口口口 |----|
①①②② |②---|
口口口口 |----|
17
①②③④ |①---|
口口口口 |②---|
口口口口 |③---|
口口口口 |④---|
18
口口口口 |①---|
②口口② |--②-|
口①①口 |----|
③口口③ |--③-|
19
口口口口 |----|
口口口口 |--①-|
口①①口 |----|
口口口口 |----|
20
③口口③ |①---|
口②②口 |--②-|
①口口① |----|
口口口口 |--③-|
21
口口口口 |----|
口口口口 |----|
口口口口 |----|
口口口口 |----|
22
口口口口 |----|
口口口口 |----|
口口口口 |----|
口①口口 |①---|
23
口口口口 |①---|
②口口口 |----|
口口口口 |----|
口口①口 |②---|
24
口口口① |①---|
口口口口 |----|
口②口口 |----|
口口口口 |②---|
25
口口口② |①---|
口口口口 |----|
口口①口 |----|
口口口口 |②---|
26
①②口口 |①---|
口口口口 |----|
口口口口 |----|
口口口口 |②---|
27
口口①口 |①---|
②口口口 |--②-|
口口口口 |----|
口口口口 |----|
28
口口口口 |----|
口口口口 |----|
口①口口 |----|
口口口口 |①---|
29
口口口口 |①---|
口口口② |----|
口口①口 |----|
口口口口 |②---|
30
口口口口 |①---|
①口口口 |----|
口口口口 |----|
口②口口 |②---|
31
口口口口 |①---|
口②口口 |----|
口口口口 |----|
口口①口 |②---|
32
口口口口 |①---|
口口①口 |----|
口②口口 |----|
口口口口 |②---|
33
口口口② |①---|
口口口口 |----|
口口①口 |----|
口口口口 |②---|
34
①口口口 |①---|
口口口口 |----|
口口口口 |----|
口②口口 |②---|
35
口口口口 |①---|
口②口口 |----|
口口口口 |----|
口口①口 |②---|
36
口口口口 |①---|
口口①口 |----|
口口口口 |----|
口口口口 |----|
37
②口口口 |①---|
口口口口 |----|
口①①口 |----|
口口口口 |②---|
38
口口口① |①---|
口口口口 |----|
口口口口 |----|
②口口② |②---|
39
口口口口 |①---|
口②③口 |②-③-|
①口口① |----|
口④④口 |④---|
40
口②③口 |①---|
④口口④ |②-③-|
口①①口 |----|
口口口口 |④---|
41
口口口口 |①---|
口②口口 |----|
①口③① |②---|
口口口口 |③---|
42
口口④口 |①---|
口口口口 |②---|
口③口口 |③---|
口①②口 |④---|
43
口①口口 |①---|
②③口口 |----|
口口口口 |②---|
口口口口 |③---|
44
口口口口 |①---|
口口①② |②---|
口③④口 |③---|
口口口口 |④---|
45
口③口口 |①---|
口口口口 |--②-|
②口口② |----|
①口口① |③---|
46
口口①口 |①---|
口口口口 |----|
口③③口 |②---|
口②②口 |③---|
47
①口口① |①---|
①②②① |----|
口口口口 |②---|
口口口口 |----|
48
口口口口 |①---|
口口口口 |②---|
口③④口 |③---|
口①②口 |④---|
49
口③④口 |①---|
口①②口 |②---|
口口口口 |③---|
口口口口 |④---|
50
①口口② |①---|
③口口④ |②---|
口口口口 |③---|
口口口口 |④---|
51
①①②② |①---|
口口口口 |--②-|
③③口口 |----|
口口口口 |--③-|
52
口口口口 |----|
口口口口 |--①-|
口口口口 |----|
口口①① |----|
53
口口口口 |①---|
口①①口 |----|
口口口口 |----|
口口口口 |----|
54
口口口口 |①---|
口口口口 |----|
口①①口
口口口口

口口口口
口口口口
口③③口 |②---|
口②②口 |③---|
55
①口口① |①---|
①②②① |----|
口口口口 |②---|
口口口口 |----|
56
口口口口 |①---|
口口口口 |②---|
口③④口 |③---|
口①②口 |④---|
57
口③④口 |①---|
口①②口 |②---|
口口口口 |③---|
口口口口 |④---|
58
①口口② |①---|
③口口④ |②---|
口口口口 |③---|
口口口口 |④---|
59
①①②② |①---|
口口口口 |--②-|
③③口口 |----|
口口口口 |--③-|
60
口口口口 |----|
口口口口 |--①-|
口口口口 |----|
口口①① |----|
61
口口口口 |①---|
口①①口 |----|
口②②口 |②---|
口口口口 |----|
62
口口口口 |①---|
口口③口 |----|
口口口② |②---|
口①①口 |③---|
63
口①口口 |①---|
口口口口 |----|
口口口口 |----|
口口口口 |----|
64
口口①口 |----|
口②口口 |①---|
③口口口 |②---|
口口口口 |③---|
65
口口口口 |①---|
口口口口 |----|
口口口口 |----|
口①口口 |----|
66
口①口口 |----|
口口②口 |①---|
口口口③ |②---|
口口口口 |③---|
67
口口口口 |①---|
口口口口 |----|
②口口口 |②---|
口口①口 |----|
68
口口口口 |----|
口口口③ |①---|
口口②口 |②---|
口①口口 |③---|
69
口口①口 |①---|
口口口口 |----|
口口口口 |----|
口口口口 |----|
70
口口口口 |----|
口口口口 |----|
口口口口 |----|
口口口口 |----|
71
口口口口 |----|
①口口② |①---|
①口口② |--②-|
口口口口 |----|
72
①口口① |----|
口①①口 |----|
口口口口 |①---|
口口口口 |----|


不確定度: 0

最終更新:2013年11月11日 13:52