ほしふり
Sana

ADVANCED

Level: 7
BPM: 155
Notes: 425

1
口口口口 |----|
口口口口 |----|
口口口口 |----|
口口口口 |----|
2
⑤⑥⑦口 |①-②-|
口口②① |③-④-|
④③口口 |--⑤-|
口口口口 |⑥-⑦-|
3
口口口口 |--①-|
口口口口 |②-③-|
口③②① |--④-|
④⑤⑥口 |⑤-⑥-|
4
口⑤⑥⑦ |①-②-|
④③②① |③-④-|
口口口口 |--⑤-|
口口口口 |⑥-⑦-|
5
口④③② |--①-|
口口口口 |----|
①口口口 |--②-|
口口口口 |③-④-|
6
口口口口 |①-②-|
①②③④ |③-④-|
⑤⑥⑦口 |--⑤-|
口口口口 |⑥-⑦-|
7
口口口④ |--①-|
口⑤口口 |②-③-|
口口⑥口 |--④-|
口③②① |⑤-⑥-|
8
口口口口 |①---|
③口口② |--②-|
口④⑤口 |③---|
①口口口 |④-⑤-|
9
口口口口 |--①-|
口口口口 |----|
口口口口 |----|
①口口① |----|
10
③③①① |①--②|
口口口口 |--③-|
口口②口 |----|
口口口口 |----|
11
口口口口 |①-②-|
⑦①②⑧ |③-④-|
③⑤⑥④ |⑤-⑥-|
口口口口 |⑦-⑧-|
12
口口口口 |①--②|
口②口口 |--③-|
口口口口 |----|
①①③③ |----|
13
口口口口 |①-②-|
④⑥⑤③ |③-④-|
⑧②①⑦ |⑤-⑥-|
口口口口 |⑦-⑧-|
14
③③①① |①--②|
口口口口 |--③-|
口口②口 |----|
口口口口 |----|
15
口口口口 |①-②-|
⑦①②⑧ |③-④-|
③⑤⑥④ |⑤-⑥-|
口口口口 |⑦-⑧-|
16
口口口口 |①--②|
口②口口 |--③-|
口口口口 |----|
①①③③ |----|
17
口口口口 |①-②-|
口①②口 |③-④-|
③⑦⑧④ |⑤-⑥-|
口⑤⑥口 |⑦-⑧-|
18
①①口⑤ |①-②-|
⑥口②口 |③-④-|
③口⑦⑦ |--⑤-|
口口④④ |⑥-⑦-|
19
口①口口 |--①-|
口口②⑥ |②-③-|
⑤口口口 |--④-|
③口口④ |⑤-⑥-|
20
①①②② |①---|
④口口④ |--②-|
口⑤⑤口 |--③-|
③口口③ |④-⑤-|
21
口口口口 |----|
口口口口 |----|
口口口口 |----|
口口口口 |----|
22
口口口口 |----|
口③口口 |----|
口口②口 |--①-|
口口口① |②-③-|
23
①口口口 |①---|
③口口② |----|
口口口口 |----|
口口口口 |②-③-|
24
口口口口 |----|
口口③口 |----|
口②口口 |--①-|
①口口口 |②-③-|
25
口口口① |①---|
口口口口 |----|
③口口② |----|
口口口口 |②-③-|
26
①口口口 |----|
口②口口 |----|
口口③口 |--①-|
口口口口 |②-③-|
27
口口口口 |①---|
口口口口 |--②-|
②口口口 |----|
口口口① |----|
28
口口口① |----|
口口②口 |----|
口③口口 |--①-|
口口口口 |②-③-|
29
口口口口 |①---|
口③②口 |----|
口口口口 |----|
①口口口 |②-③-|
30
口口口口 |----|
口③口口 |----|
口口②口 |--①-|
口口口① |②-③-|
31
①口②口 |①---|
④口口③ |--②-|
口口口口 |----|
口口口口 |③-④-|
32
口①口口 |--①-|
口口⑦口 |②-③-|
③⑥口② |④-⑤-|
⑤口④口 |⑥-⑦-|
33
②口口① |①---|
口口口口 |--②-|
④口口③ |----|
口口口口 |③-④-|
34
⑤口口④ |--①-|
①⑥②口 |②-③-|
口③⑦口 |④-⑤-|
口口口口 |⑥-⑦-|
35
口口口口 |①---|
②口口口 |----|
口③口口 |--②-|
口口④① |③-④-|
36
口③口④ |①-②-|
口口②口 |③-④-|
①口口口
口口口口

口口口口
⑤口⑧口
口⑨⑥口 |⑤-⑥-|
⑦口口口 |⑦-⑧⑨|
37
口口口④ |①---|
③口口口 |----|
口口口② |--②-|
口口①口 |③-④-|
38
口①②口 |--①-|
口③③口 |②---|
口①②口 |----|
口口口口 |③---|
39
口口口口 |①---|
④口口④ |②-③-|
口①①口 |----|
②口口③ |④---|
40
口②③口 |①---|
口口⑥口 |②-③-|
①⑤口① |--④-|
口口④口 |⑤-⑥-|
41
①口口口 |①---|
②口口② |----|
口③④口 |②---|
口口口口 |③-④-|
42
①口口① |--①-|
口口口口 |--②-|
口③③口 |----|
②口口② |③---|
43
口口口⑤ |①---|
口①①口 |--②-|
②口口② |--③-|
口③④口 |④--⑤|
44
①口口口 |----|
口④口口 |--①-|
口口③口 |--②-|
口②口口 |③-④-|
45
口口①① |①---|
口④②口 |②-③-|
③③⑤口 |--④-|
口⑥口口 |⑤-⑥-|
46
④⑤⑤口 |----|
口口口① |--①-|
②⑤⑤口 |②-③-|
口口口③ |④-⑤-|
47
口口口口 |----|
②①①③ |--①-|
口口口口 |----|
②口口③ |②-③-|
48
①口口① |----|
④③②④ |①---|
口②③口 |②--③|
口口口口 |--④-|
49
③口口④ |----|
口③④口 |①---|
①口口① |②---|
②口口② |③-④-|
50
口口口口 |--①-|
①口口② |②-③-|
①④④② |----|
口③③口 |④---|
51
①⑤⑤① |①-②-|
⑥②③⑥ |③-④-|
口口口口 |--⑤-|
④口口④ |--⑥-|
52
口口口口 |--①-|
口①⑥口 |②-③-|
口⑤②口 |--④-|
口③④口 |⑤-⑥-|
53
口①口口 |①---|
口口口口 |----|
⑤④③② |②-③-|
口口口口 |④-⑤-|
54
口口②口 |--①-|
①口口① |--②-|
口口口口
①口口①

口口口口
口③口⑥
口口④口 |③-④-|
口⑤口口 |⑤-⑥-|
55
①口口① |----|
④口口⑤ |①-②-|
口②③口 |③---|
④口口⑤ |④-⑤-|
56
①口口① |----|
④③②④ |①---|
口②③口 |②--③|
口口口口 |--④-|
57
④口①⑤ |----|
口④⑤口 |①-②-|
口②口口 |③---|
口口③口 |④-⑤-|
58
口①①口 |--①-|
口口口口 |----|
口②②口 |----|
口口口口 |②---|
59
①⑤⑤① |①-②-|
⑥②③⑥ |③-④-|
口口口口 |--⑤-|
④口口④ |--⑥-|
60
①口口口 |--①-|
口⑦②口 |②-③-|
③口⑥口 |④-⑤-|
口⑤口④ |⑥-⑦-|
61
④④①口 |①---|
口口②② |--②-|
③③口口 |③---|
口口⑤⑤ |④-⑤-|
62
口口口② |--①-|
口①①口 |----|
口③口口 |②---|
口口口口 |③---|
63
口口口口 |①-②-|
口口口口 |③-④-|
⑤口口⑥ |--⑤-|
①②③④ |--⑥-|
64
口④口⑤ |--①-|
⑥口③⑤ |②-③-|
⑥②口口 |④--⑤|
口口①口 |--⑥-|
65
口口口口 |①-②-|
口口口口 |③-④-|
⑤口口⑥ |--⑤-|
①②③④ |--⑥-|
66
⑤口①口 |--①-|
口②口⑥ |②-③-|
口口③口 |④--⑤|
口④口口 |--⑥-|
67
口口口口 |①---|
③口口④ |--②-|
①口②口 |--③-|
口口口口 |--④-|
68
口④口口 |--①-|
⑥口③⑤ |②-③-|
⑥②口⑤ |④--⑤|
口口①口 |--⑥-|
69
口口口口 |①-②-|
口口口口 |③-④-|
⑤口口⑥ |--⑤-|
①②③④ |--⑥-|
70
口②③口 |----|
口①①口 |①---|
口④⑤口 |②-③-|
口口口口 |④-⑤-|
71
①①②② |----|
口口口口 |①-②-|
口口口口 |--③-|
③③④④ |④---|
72
口口口口 |----|
口②②口 |--①-|
口口口口 |②---|
口①口口 |----|
73
口口口口 |----|
口口①口 |----|
口②口口 |--①②|
口口③口 |③---|


不確定度: 0

最終更新:2013年11月11日 13:52