Life Connection
world sequence
BASIC
Level: 4
BPM: 200
Notes: 269
1
口口口口 |----|
口口口口 |----|
口口口口 |----|
口口口口
2
口口口口 |①---|
①口口口 |----|
口口口口 |----|
口口口口
3
口口口口 |①---|
口口①口 |----|
口口口口 |----|
口口口口
4
口口口口 |①---|
口口口口 |----|
口①①口 |----|
口口口口
5
口口口口 |①---|
口①①口 |----|
口口口口 |----|
口口口口
6
口口口口 |①---|
①口口口 |----|
口口口口 |----|
口口口口
7
口口口口 |①---|
口口①口 |----|
口口口口 |----|
口口口口
8
口口口口 |①---|
口口口口 |----|
口①①口 |----|
口口口口
9
口口口口 |①---|
口①①口 |----|
口口口口 |----|
口口口口
10
口口口口 |①---|
口口口口 |----|
①口口口 |----|
口口口口
11
口口口口 |①---|
口口口口 |----|
口口①口 |----|
口口口口
12
口口口口 |①---|
口①①口 |----|
口口口口 |----|
口口口口
13
口口口口 |①---|
口口口口 |----|
口①①口 |----|
口口口口
14
口口口口 |①---|
口口口口 |----|
①口口口 |----|
口口口口
15
口口口口 |①---|
口口口口 |----|
口口①口 |----|
口口口口
16
口口口口 |①---|
口①①口 |----|
口口口口 |----|
口口口口
17
口口口口 |①---|
口口口口 |----|
口①①口 |----|
口口口口
18
口口口口 |①---|
口①①口 |----|
口口口口 |----|
口口口口
19
口口口口 |①---|
口口口口 |----|
①口口口 |----|
口口口口
20
口口口口 |①---|
口口口口 |----|
口①口口 |----|
口口口口
21
口口口口 |①---|
口①①口 |----|
口口口口 |----|
口口口口
22
口①口口 |①---|
口口口口 |----|
口口口口 |----|
口口口口
23
口口①口 |①---|
口口口口 |----|
口口口口 |----|
口口口口
24
口口口① |①---|
口口口口 |----|
口口口口 |----|
口口口口
25
口口口口 |①---|
口①①口 |----|
口口口口 |----|
口口口口
26
口口口口 |①---|
口口口口 |----|
①口口口 |----|
口口口口
27
口口口口 |①---|
口口口口 |----|
口①口口 |----|
口口口口
28
口口口口 |①---|
口口口口 |----|
口口①口 |----|
口口口口
29
口口口口 |①---|
口口口口 |----|
口口口口 |----|
口①①口
30
口口口口 |①---|
口口口口 |----|
口口口① |----|
口口口口
31
口口口口 |①---|
口口口口 |----|
口口①口 |----|
口口口口
32
口口口口 |①---|
口①①口 |----|
口口口口 |----|
口口口口
33
口①①口 |①---|
口口口口 |----|
口口口口 |----|
口口口口
34
口口口口 |①---|
口①①口 |----|
口口口口 |----|
口口口口
35
口口口口 |----|
口口口口 |①---|
口①②口 |②---|
口口口口
36
口口口口 |①---|
口口口口 |----|
口口口① |----|
口口口口
37
口口口口 |----|
口①②口 |①---|
口口口口 |②---|
口口口口
38
口口口口 |①---|
口口口口 |----|
①口②口 |②---|
口口口口
39
口口口口 |----|
口口口口 |①---|
口口口口 |②---|
口①②口
40
口口口口 |①---|
口口口口 |----|
口口②口 |②---|
口口口①
41
口口口口 |----|
口①②口 |①---|
口口口口 |②---|
口口口口
42
口口口口 |①---|
口口口① |----|
口口口口 |----|
口口口口
43
口口口口 |----|
口口口口 |①---|
口①②口 |②---|
口口口口
44
口口口口 |①---|
口口口② |----|
口口口① |②---|
口口口口
45
口口②口 |①---|
口①口口 |----|
口口口口 |②---|
口口口口
46
①口口口 |①---|
口口口口 |----|
口口口口 |----|
口口口口
47
口口口口 |①---|
①口②口 |----|
口口口口 |②---|
口口口口
48
口口口口 |①---|
口口口口 |----|
口①①口 |----|
口口口口
49
口口口口 |①---|
口口口口 |----|
口口口口 |----|
口①①口
50
口口口口 |①---|
①③口口 |②---|
②口口口 |③---|
口口口口
51
口口口口 |①---|
口口口口 |----|
口①口口 |----|
口口口口
52
口口口口 |①---|
口口①③ |②---|
口口②口 |③---|
口口口口
53
口口口口 |①---|
口口口口 |----|
口口口① |----|
口口口口
54
口①①口 |①---|
口口口口 |----|
口口口口 |----|
口口口口
55
口口口口 |①---|
口①①口 |----|
口口口口 |----|
口口口口
56
口口口口 |①---|
口口口口 |----|
口①①口 |----|
口口口口
57
口口口口 |----|
口口口口 |----|
口口口口 |----|
口口口口
58
口口口口 |①---|
③①口口 |②---|
口②口口 |③---|
口口口口
59
口口口口 |①---|
口口口口 |----|
①口口口 |----|
口口口口
60
口口口口 |①---|
口口③① |②---|
口口口② |③---|
口口口口
61
口口口口 |①---|
口口口口 |----|
口口①口 |----|
口口口口
62
口口口口 |①---|
口③①口 |②---|
口口②口 |③---|
口口口口
63
口口口口 |①---|
口口口口 |----|
口①口口 |----|
口口口口
64
口口口口 |①---|
口口口口 |----|
口口口口 |----|
口①①口
65
口口口口 |①---|
口口口口 |----|
口口口口 |----|
①口口①
66
口口口口 |①---|
口口口口 |----|
①口口① |----|
口口口口
67
口口口口 |①---|
①②③口 |②---|
口口口口 |③---|
口口口口
68
①②③① |①---|
口口口口 |②---|
口口口口 |③---|
口口口口
69
口口口口 |①---|
①②③① |②---|
口口口口 |③---|
口口口口
70
口口口口 |①---|
口口口口 |②---|
①②③① |③---|
口口口口
71
口口口口 |①---|
口②③口 |②---|
口口口口 |③---|
①口口①
72
①②③① |①---|
口口口口 |②---|
口口口口 |③---|
口口口口
73
口口口口 |①---|
①②③① |②---|
口口口口 |③---|
口口口口
74
口口口口 |①---|
口口口口 |②---|
①②③① |③---|
口口口口
75
口口口口 |①---|
口②③口 |②---|
口口口口 |③---|
①口口①
76
①②③① |①---|
口口口口 |②---|
口口口口 |③---|
口口口口
77
口口口口 |①---|
①②③① |②---|
口口口口 |③---|
口口口口
78
口口口口 |①---|
口口口口 |②---|
①②③① |③---|
口口口口
79
口口口口 |①---|
口②③口 |②---|
口口口口 |③---|
①口口①
80
①①口口 |①---|
口口口口 |----|
口口口口 |----|
口口口口
81
口口口口 |①---|
口口①① |----|
口口口口 |----|
口口口口
82
口口口口 |①---|
口口口口 |----|
①①口口 |----|
口口口口
83
口口口口 |①---|
①②③口 |②---|
口口口口 |③---|
口口口口
84
①③②① |①---|
口口口口 |②---|
口口口口 |③---|
口口口口
85
口口口口 |①---|
①③②① |②---|
口口口口 |③---|
口口口口
86
口口口口 |①---|
口口口口 |②---|
①③②① |③---|
口口口口
87
口口口口 |①---|
口②②口 |②---|
口口口口 |③---|
①③③①
88
①③②① |①---|
口口口口 |②---|
口口口口 |③---|
口口口口
89
口口口口 |①---|
①③②① |②---|
口口口口 |③---|
口口口口
90
口口口口 |①---|
口口口口 |②---|
①③②① |③---|
口口口口
91
口口口口 |①---|
口②②口 |②---|
口口口口 |③---|
①③③①
92
①③②① |①---|
口口口口 |②---|
口口口口 |③---|
口口口口
93
口口口口 |①---|
①③②① |②---|
口口口口 |③---|
口口口口
94
口口口口 |①---|
口口口口 |②---|
①③②① |③---|
口口口口
95
口口口口 |①---|
③②②③ |②---|
口口口口 |③---|
口①①口
96
①①①口 |①---|
口口口口 |----|
口口口口 |----|
口口口口
97
口口口口 |①---|
口①①① |----|
口口口口 |----|
口口口口
98
口口口口 |①---|
口口口口 |----|
①①①口 |----|
口口口口
99
口口口口 |----|
口口②② |①---|
①①口口 |②---|
口口口口
100
①①口口 |①---|
口口口口 |----|
口口口口 |----|
口口口口
101
口口口口 |①---|
口口①口 |----|
口口口口 |----|
口口口口
102
口口口口 |①---|
口口口口 |----|
①①口口 |----|
口口口口
103
口口口口 |①---|
口②①① |②---|
口口③口 |③---|
口口口口
104
口口口口 |①---|
口口口口 |----|
①口口口 |----|
口口口口
105
口口口口 |①---|
口口口口 |----|
口口①口 |----|
口口口口
106
口口口口 |①---|
口口口口 |----|
口口口口 |----|
①①口口
107
口口口口 |①---|
口口③口 |②---|
口②①① |③---|
口口口口
108
口①口口 |①---|
口口口口 |----|
口口口口 |----|
口口口口
109
口口口① |①---|
口口口口 |----|
口口口口 |----|
口口口口
110
口口口口 |①---|
①①口口 |----|
口口口口 |----|
口口口口
111
口口①① |①---|
口②口口 |②---|
口口③口 |③---|
口口口口
112
口口口口 |①---|
口口口口 |----|
①口口口 |----|
口口口口
113
口口口口 |①---|
口口口口 |----|
口口①口 |----|
口口口口
114
口口口口 |①---|
①①口口 |----|
口口口口 |----|
口口口口
115
口口①① |①---|
口口③口 |②---|
口②口口 |③---|
口口口口
116
口口口口 |①---|
①口口① |----|
口口口口 |----|
口口口口
不確定度: 0