影縫い胤撒き
Akhuta

BASIC

Level: 3
BPM: 180
Notes: 278

1
口口口口 |----|
口口口口 |----|
口口口口 |----|
口口口口
2
口口口口 |①---|
口①①口 |----|
口口口口 |----|
口口口口
3
口口口口 |----|
口口口口 |----|
口口口口 |----|
口口口口
4
口口口口 |----|
口口口口 |----|
口口口口 |----|
口口口口
5
口口口口 |----|
口口口口 |----|
口口口口 |----|
口口口口
6
口口口口 |----|
口口口口 |----|
口口口口 |----|
口口口口
7
口口口口 |----|
口口口口 |----|
口口口口 |----|
口口口口
8
口口口口 |①---|
口口口口 |--②-|
口②口口 |----|
口口①口
9
口口口口 |①---|
口口①口 |----|
口口口口 |----|
口口口口
10
口①①口 |①---|
口口口口 |----|
口口口口 |----|
口口口口
11
口口口口 |----|
口口口口 |----|
口口口口 |----|
口口口口
12
口口口口 |①---|
口口口口 |--②-|
口口②口 |----|
口①口口
13
口口口口 |①---|
口①口口 |----|
口口口口 |----|
口口口口
14
口①①口 |①---|
口口口口 |----|
口口口口 |----|
口口口口
15
口口口口 |----|
口口口口 |----|
口口口口 |----|
口口口口
16
口口口口 |①---|
口口口③ |②---|
口口口② |③---|
口口口①
17
口口口口 |①---|
口口③口 |②---|
口口②口 |③---|
口口①口
18
口口口口 |①---|
①①口口 |----|
口口口口 |----|
口口口口
19
口口口口 |①---|
口口口口 |----|
①①口口 |----|
口口口口
20
口口口口 |①---|
③口口口 |②---|
②口口口 |③---|
①口口口
21
口口口口 |①---|
口③口口 |②---|
口②口口 |③---|
口①口口
22
口口口口 |①---|
口口①① |----|
口口口口 |----|
口口口口
23
口口口口 |①---|
口口口口 |----|
口口①① |----|
口口口口
24
口口口口 |①---|
口口口③ |②---|
口口口② |③---|
口口口①
25
口口口口 |①---|
③口口口 |②---|
②口口口 |③---|
①口口口
26
口口口口 |①---|
口①①口 |----|
口口口口 |----|
口口口口
27
口口口口 |①---|
口口口口 |----|
口①①口 |----|
口口口口
28
口口口口 |①---|
口口口口 |----|
口口口口 |----|
口①①口
29
口口口口 |----|
口口口口 |----|
口口口口 |----|
口口口口
30
口口口口 |①---|
口口口口 |----|
①口口① |----|
口口口口
31
口口口口 |①---|
①口口① |----|
口口口口 |----|
口口口口
32
口口口口 |①---|
口口③口 |②---|
口口②口 |③---|
口①①口
33
口①①口 |①---|
口②口口 |②---|
口③口口 |③---|
口口口口
34
口口口口 |①---|
口口口③ |②---|
口口口② |③---|
①口口①
35
①口口① |①---|
口口口口 |----|
口口口口 |----|
口口口口
36
口口口口 |①---|
口口③口 |②---|
口口②口 |③---|
口①①口
37
口①①口 |①---|
口②口口 |②---|
口③口口 |③---|
口口口口
38
口口口口 |①---|
口口口③ |②---|
口口口② |③---|
①口口①
39
①口口① |①---|
口口口口 |----|
口口口口 |----|
口口口口
40
口口口口 |①---|
③口口口 |②---|
②口口口 |③---|
①口口口
41
口口口口 |①---|
口③口口 |②---|
口②口口 |③---|
口①口口
42
口口口口 |①---|
口口①① |----|
口口口口 |----|
口口口口
43
口口口口 |①---|
口口口口 |----|
口口①① |----|
口口口口
44
口口口口 |①---|
口口口③ |②---|
口口口② |③---|
口口口①
45
口口口口 |①---|
口口③口 |②---|
口口②口 |③---|
口口①口
46
口口口口 |①---|
①①口口 |----|
口口口口 |----|
口口口口
47
口口口口 |①---|
口口口口 |----|
①①口口 |----|
口口口口
48
口口口口 |①---|
口口口③ |②---|
口口②口 |③---|
口①口口
49
口口①口 |①---|
口②口口 |②---|
③口口口 |③---|
口口口口
50
口口口口 |①---|
口口口口 |②---|
口①②③ |③---|
口口口口
51
口口口口 |①---|
口③②① |②---|
口口口口 |③---|
口口口口
52
口②口口 |①---|
①口③口 |②---|
口口口口 |③---|
口口口口
53
口口口口 |①---|
口口口口 |②---|
口③口① |③---|
口口②口
54
口口口口 |①---|
①②③口 |②---|
口口口口 |③---|
口口口口
55
口口口口 |①---|
口口口① |②---|
口口③② |③---|
口口口口
56
口③口口 |①---|
口②口口 |②---|
口①口口 |③---|
口口口口
57
口口①口 |①---|
口口②口 |②---|
口口③口 |③---|
口口口口
58
口口口口 |①---|
口③口口 |②---|
口②口口 |③---|
口①①口
59
口①②口 |①---|
口口③口 |②---|
口口口口 |③---|
口口口口
60
口口口口 |①---|
口口口口 |----|
口①①口 |----|
口口口口
61
口口口口 |①---|
口①①口 |----|
口口口口 |----|
口口口口
62
口①①口 |①---|
口口口口 |----|
口口口口 |----|
口口口口
63
口口口口 |----|
口口口口 |----|
口口口口 |----|
口口口口
64
口口口口 |①---|
口③②① |②---|
口口口口 |③---|
口口口口
65
口口口口 |①---|
口口口口 |②---|
①②③口 |③---|
口口口口
66
口口口口 |①---|
口口口口 |----|
口口口② |②---|
口①①口
67
口口口口 |①---|
口口口① |----|
口口口口 |----|
口口口口
68
口口口口 |①---|
①②③口 |②---|
口口口口 |③---|
口口口口
69
口口口口 |①---|
口口口口 |②---|
口③②① |③---|
口口口口
70
口口口口 |①---|
口口口口 |----|
②口口口 |②---|
口①①口
71
口口口口 |①---|
①口口口 |----|
口口口口 |----|
口口口口
72
口口口口 |①---|
口口③口 |②---|
口口②口 |③---|
口①①口
73
口①①口 |①---|
口②口口 |②---|
口③口口 |③---|
口口口口
74
口口口口 |①---|
口口口口 |----|
②口口② |②---|
口①①口
75
②③③② |①---|
①口口① |②---|
口口口口 |③---|
口口口口
76
口口口口 |①---|
口①①口 |----|
口口口口 |----|
口口口口
77
口口口口 |----|
口口口口 |①---|
口②口口 |②---|
口口①口
78
口口口口 |①---|
口①①口 |----|
口口口口 |----|
口口口口
79
①口口① |①---|
口口口口 |----|
口口口口 |----|
口口口口
80
口口口口 |①---|
口③②① |②---|
口口口口 |③---|
口口口口
81
口口口口 |①---|
口口口口 |②---|
①②③口 |③---|
口口口口
82
口口口口 |①---|
口口口口 |----|
口口口② |②---|
口①①口
83
口口口口 |①---|
口口口① |----|
口口口口 |----|
口口口口
84
口口口口 |①---|
①②③口 |②---|
口口口口 |③---|
口口口口
85
口口口口 |①---|
口口口口 |②---|
口③②① |③---|
口口口口
86
口口口口 |①---|
口口口口 |----|
②口口口 |②---|
口①①口
87
口口口口 |①---|
①口口口 |----|
口口口口 |----|
口口口口
88
口口口口 |①---|
口③口口 |②---|
口口②口 |③---|
口①①口
89
口①①口 |①---|
口口口口 |----|
②口口② |②---|
口口口口
90
口口口口 |①---|
①口②① |----|
口口口口 |②---|
口口口口
91
口口口口 |①---|
口①口口 |②---|
口③②口 |③---|
口口口口
92
口口口口 |①---|
口口口口 |----|
口口口口 |----|
口①①口
93
口口口口 |①---|
口口口口 |----|
口①①口 |----|
口口口口
94
口口口口 |①---|
口①①口 |----|
口口口口 |----|
口口口口
95
口口①① |①---|
口口口② |②---|
口口口③ |③---|
口口口口
96
口口口口 |①---|
口口③口 |②---|
口口②口 |③---|
口口①①
97
①①口口 |①---|
②口口口 |②---|
③口口口 |③---|
口口口口
98
口口口口 |①---|
口③口口 |②---|
口②口口 |③---|
①①口口
99
③①①② |①---|
口口口口 |②---|
口口口口 |③---|
口口口口
100
口口口口 |①---|
②口口① |②---|
口口口③ |③---|
口口口口
101
口口口口 |①---|
口口口口 |②---|
①口口口 |③---|
③口口②
102
口口③口 |①---|
口②口口 |②---|
口口①口 |③---|
口口口口
103
①口口① |①---|
口口口② |②---|
口口口③ |③---|
口口口口
104
口口口口 |①---|
口口③口 |②---|
口口②口 |③---|
口①①口
105
口①①口 |①---|
口②口口 |②---|
口③口口 |③---|
口口口口
106
口口口口 |①---|
③口口口 |②---|
②口口口 |③---|
①口口①
107
口①口口 |①---|
口②口口 |②---|
口③口口 |③---|
口口口口
108
口口③口 |①---|
口口②口 |②---|
口口①口 |③---|
口口口口
109
①口口① |①---|
口口口口 |----|
口口口口 |----|
口口口口


不確定度: 0

最終更新:2013年11月11日 13:43