影縫い胤撒き
Akhuta

ADVANCED

Level: 6
BPM: 180
Notes: 443

1
口口口口 |----|
口口口口 |----|
口口口口 |----|
口口口口
2
口④④口 |①--②|
口口③口 |--③-|
口②口口 |---④|
口口①口
3
口口口口 |----|
口口口口 |--①-|
口②口口 |-②--|
口口①口
4
口②③口 |①--②|
口④①口 |--③-|
口口口口 |-④--|
口口口口
5
口口口口 |①---|
②口口③ |②---|
口口①口 |③---|
口口口口
6
口口口口 |----|
口口口口 |----|
口口口口 |----|
口口口口
7
口口口口 |----|
口口口口 |----|
口口口口 |----|
口口口口
8
口口口口 |①---|
口②②口 |--②-|
口口口口 |----|
①口口①
9
口口口口 |①---|
口口口口 |----|
口①①口 |----|
口口口口
10
口①②③ |①---|
①口口口 |②---|
口口口口 |③---|
口口口口
11
口口口口 |①---|
口口口口 |----|
口①①口 |----|
口口口口
12
口口口口 |①---|
口口口口 |--②-|
口②②口 |----|
①口口①
13
口口口口 |①---|
口①①口 |----|
口口口口 |----|
口口口口
14
③②①口 |①---|
口口口① |②---|
口口口口 |③---|
口口口口
15
口口口口 |①---|
口口口口 |----|
口①①口 |----|
口口口口
16
口口口口 |①---|
口口口② |----|
口口口口 |②---|
口①①口
17
口口口口 |①---|
①口口口 |②---|
口③②口 |③---|
口口口口
18
口口口口 |①---|
口③②口 |--②-|
口口④口 |③-④-|
口①①口
19
口口口口 |①---|
口口口口 |----|
口①口口 |----|
口口口口
20
口②口口 |①---|
口口口③ |②---|
口口口口 |③---|
口①①口
21
口口口口 |①---|
①口口口 |②---|
口③②口 |③---|
口口口口
22
口口口口 |①---|
口③②口 |--②-|
口口④口 |③-④-|
口①①口
23
口口口口 |①---|
口口口口 |----|
口①口口 |----|
口口口口
24
口口口口 |①---|
口口口② |----|
口口口口 |②---|
口①①口
25
口口口口 |①---|
①口口口 |②---|
口③②口 |③---|
口口口口
26
口口口口 |①---|
口③口口 |----|
口口②口 |②-③-|
口①①口
27
口口①口 |①---|
口口口② |----|
口口口口 |②---|
口口口口
28
口口口口 |①---|
口口口口 |----|
口口口① |----|
口口口口
29
口口口口 |----|
口口口口 |①---|
①②口口 |②---|
口口口口
30
口③③口 |①---|
口口②① |②---|
口口口口 |③---|
口口口口
31
口口口口 |①---|
口②②口 |----|
口①①口 |②---|
口口口口
32
口口口口 |①---|
口口口③ |②---|
口口口② |③---|
①口口①
33
①口口① |①---|
②口口口 |②---|
③口口口 |③---|
口口口口
34
口③③口 |①---|
口①②口 |②---|
口②①口 |③---|
口口口口
35
口口口口 |----|
口口口口 |----|
口口口口 |----|
口口口口
36
口口口口 |①---|
口口口③ |②---|
口口口② |③---|
①口口①
37
①口口① |①---|
②口口口 |②---|
③口口口 |③---|
口口口口
38
口口口口 |①---|
口②②口 |--②-|
口①①口 |----|
口口口口
39
口②②口 |①---|
口口口口 |--②-|
口口口口 |----|
口①①口
40
口口口口 |①---|
口口口② |----|
口口口口 |②---|
①口口①
41
口口口口 |①---|
①口②口 |②---|
口③口口 |③-④-|
口口④口
42
口口口口 |①---|
口③④口 |--②-|
口口②口 |③-④-|
口①口口
43
②①口口 |①---|
口口口口 |----|
口口口口 |②---|
口口口口
44
口口口口 |①---|
①口口口 |----|
口②口口 |②-③-|
口口③口
45
口口口口 |①---|
口③④口 |--②-|
口口②口 |③-④-|
口①口口
46
口①口口 |①---|
口口口口 |--②-|
口口口口 |----|
口口②口
47
口口口口 |----|
口口口口 |----|
口口口口 |----|
口口口口
48
②③口② |①---|
口口口口 |②---|
口口口口 |--③-|
①口口①
49
⑥口口口 |①-②-|
口口⑤① |③-④-|
②④口口 |⑤-⑥-|
口口③口
50
口口口① |①-②-|
口②口口 |③-④-|
口⑥③口 |⑤-⑥-|
④口口⑤
51
口②③口 |①-②-|
口④①口 |③-④-|
口口口⑤ |⑤-⑥-|
口⑥口口
52
②口口② |①---|
口③口口 |②---|
口口口口 |--③-|
①口口①
53
口④⑤口 |①-②-|
⑥口口③ |③-④-|
口口①口 |⑤-⑥-|
口②口口
54
⑥口口⑤ |①-②-|
口④口口 |③-④-|
口口③① |⑤-⑥-|
②口口口
55
口⑥口口 |①-②-|
口口①⑤ |③-④-|
②④口口 |⑤-⑥-|
口口③口
56
①口口① |①---|
口②②口 |②---|
③口口③ |③---|
口口口口
57
口口口口 |①---|
口口口口 |②---|
口③③口 |③---|
②①①②
58
②口口② |①---|
①口口① |----|
口口口口 |②---|
口口口口
59
口口口口 |①---|
口①①口 |②---|
②口口② |③---|
口③③口
60
口口口口 |①---|
①③②① |--②-|
口口④口 |③-④-|
口口口口
61
口口口口 |①---|
口口口口 |----|
口①口口 |----|
口口口口
62
口口口口 |①---|
口口口口 |----|
口口口口 |----|
①口口①
63
口口口口 |----|
口口口口 |----|
口口口口 |----|
口口口口
64
口口口③ |①---|
口口③② |②---|
口口②口 |③---|
口①口①
65
③口口口 |①---|
②③口口 |②---|
口②口口 |③---|
①口①口
66
口②②口 |①---|
口口口口 |----|
①口口① |②---|
口口口口
67
①口口① |①---|
口口口口 |----|
口口口口 |----|
口口口口
68
口口口③ |①---|
口口③② |②---|
口口②口 |③---|
口①口①
69
③口口口 |①---|
②③口口 |②---|
口②口口 |③---|
①口①口
70
口②②口 |①---|
口口口口 |----|
①口口① |②---|
口口口口
71
口口口口 |①---|
①口口① |----|
口口口口 |----|
口口口口
72
口口③② |①---|
口口③② |②---|
口①口① |③---|
口口口口
73
②③口口 |①---|
②③口口 |②---|
①口①口 |③---|
口口口口
74
口口口口 |①---|
口口口口 |----|
口口口口 |②---|
①②②①
75
口①①口 |①---|
口②②口 |②---|
口③③口 |③---|
口口口口
76
口口口口 |①---|
口口口口 |----|
口口口口 |----|
口①①口
77
口口口口 |----|
口口口口 |①---|
②口口② |②---|
①口口①
78
口③口口 |①---|
①口②① |----|
口口口口 |②-③-|
口口口口
79
口口①口 |①---|
口口口口 |----|
口口口口 |----|
口口口口
80
口口口③ |①---|
口口③② |②---|
口口②口 |③---|
口①口①
81
③口口口 |①---|
②③口口 |②---|
口②口口 |③---|
①口①口
82
口②②口 |①---|
口口口口 |----|
①口口① |②---|
口口口口
83
①口口① |①---|
口口口口 |----|
口口口口 |----|
口口口口
84
口口口③ |①---|
口口③② |②---|
口口②口 |③---|
口①口①
85
③口口口 |①---|
②③口口 |②---|
口②口口 |③---|
①口①口
86
口②②口 |①---|
口口口口 |----|
①口口① |②---|
口口口口
87
口口口口 |①---|
①口口① |----|
口口口口 |----|
口口口口
88
口口口口 |①---|
口⑤④口 |②-③-|
口③②口 |④-⑤-|
口①①口
89
②口①② |①---|
口口口口 |----|
口口口口 |②---|
口口口口
90
口口口口 |①---|
①口口① |----|
口口口口 |②---|
口②②口
91
口③③口 |①---|
口②②口 |②---|
口①①口 |③---|
口口口口
92
①口口① |①---|
口口口口 |----|
②口口② |②---|
口口口口
93
口①①口 |①---|
口②②口 |②---|
口口口口 |----|
口口口口
94
口口口口 |①---|
口口口口 |----|
口口口口 |②---|
②①①②
95
口口③② |①---|
③②口口 |②---|
口①口① |③---|
口口口口
96
②③口口 |①---|
口口②③ |②---|
①口①口 |③---|
口口口口
97
口口③② |①---|
③②口口 |②---|
口①口① |③---|
口口口口
98
②③口口 |①---|
口口②③ |②---|
①口①口 |③---|
口口口口
99
口口口口 |①---|
口③③口 |②---|
口②②口 |③---|
①口口①
100
口①①口 |①---|
②口口② |②---|
③口口③ |③---|
口口口口
101
口口口口 |①---|
口③③口 |②---|
口②②口 |③---|
①口口①
102
①口口① |①---|
②口口② |②---|
③口口③ |③---|
口口口口
103
口口口口 |①---|
口口③口 |②---|
口口②口 |③---|
口口①①
104
①①口口 |①---|
口②口口 |②---|
口③口口 |③---|
口口口口
105
口口口口 |①---|
口口口③ |②---|
口口口② |③---|
口①口①
106
①口①口 |①---|
②口口口 |②---|
③口口口 |③---|
口口口口
107
口口口口 |①---|
口②②口 |②---|
口③③口 |③---|
口①①口
108
③①①③ |①---|
口口口口 |②---|
②口口② |③---|
口口口口
109
口口口口 |①---|
口①①口 |----|
口①①口 |----|
口口口口
110
口口口口 |----|
口口口口 |----|
口口口口 |----|
口口口口
111
口口口口 |①---|
口口③口 |②---|
口②口口 |③---|
口口①口
112
口①①口 |--①-|
口口口口 |----|
口口口口 |----|
口口口口
113
口口口口 |--①-|
口口③口 |-②--|
口②口口 |③---|
口口①口
114
口①②口 |①---|
口口口口 |--②-|
口口口口 |----|
口口口口
115
口口口口 |①---|
口①口口 |----|
口口②口 |--②-|
口口口口
116
口口口口 |----|
①口口口 |----|
口口口口 |①---|
口口口口


不確定度: 0

最終更新:2013年11月11日 13:43