ツキミチヌ
CULTVOICE by S.S.D. PRODUCTS

BASIC

Level: 3
BPM: 146
Notes: 199

1
口口口口 |----|
口口口口 |----|
口口口口 |----|
口口口口 |----|
2
口口口口 |①---|
口口口口 |----|
口②②口 |②---|
口①①口 |----|
3
口②②口 |①---|
口①①口 |----|
口口口口 |②---|
口口口口 |----|
4
口口口口 |①---|
口口口口 |----|
②口口② |②---|
①口口① |----|
5
②口口② |①---|
①③口① |----|
口口口口 |②---|
口口口口 |③---|
6
口口口口 |①---|
口口①口 |----|
②口口口 |②---|
口口口口 |----|
7
口口口口 |①---|
口口③口 |②---|
口②口口 |③---|
口口①口 |----|
8
口①②口 |①---|
口口口口 |----|
口口口口 |②---|
口口口口 |----|
9
口口口口 |①---|
口①口口 |----|
口口口口 |----|
口口口口 |----|
10
口口口口 |①---|
②口口口 |----|
口①①口 |②---|
口口口口 |----|
11
①②口口 |①---|
口口口口 |----|
口口口口 |②---|
口口口口 |----|
12
口口口口 |①---|
口①①口 |----|
口口口② |②---|
口口口口 |----|
13
口口口口 |①---|
口口口口 |----|
口口口口 |②---|
口口②① |----|
14
口口口口 |①---|
②口口口 |----|
口①①口 |②---|
口口口口 |----|
15
①②口口 |①---|
口口口口 |----|
口口口口 |②---|
口口口口 |----|
16
口口口口 |①---|
口②②口 |----|
口①①口 |②---|
口口口口 |----|
17
口①①口 |①---|
口口口口 |----|
口口口口 |----|
口口口口 |----|
18
口口口口 |①---|
②口口口 |----|
口①①口 |②---|
口口口口 |----|
19
①②口口 |①---|
口口口口 |----|
口口口口 |②---|
口口口口 |----|
20
口口口口 |①---|
口①①口 |----|
口口口② |②---|
口口口口 |----|
21
口口口口 |①---|
口口口口 |----|
口口口口 |②---|
口口②① |----|
22
口口口口 |①---|
②口口口 |----|
口①①口 |②---|
口口口口 |----|
23
①②口口 |①---|
口口口口 |----|
口口口口 |②---|
口口口口 |----|
24
口口口口 |①---|
口②②口 |----|
口①①口 |②---|
口口口口 |----|
25
口①①口 |①---|
口口口口 |----|
口口口口 |----|
口口口口 |----|
26
①口②口 |①---|
③口④口 |②---|
口口口口 |③---|
口口口口 |④---|
27
口口口口 |①---|
口口口口 |②---|
①口②口 |③---|
③口④口 |④---|
28
口①口② |①---|
口③口④ |②---|
口口口口 |③---|
口口口口 |④---|
29
口口口口 |①---|
口口口口 |②---|
口①口② |③---|
口③口④ |④---|
30
口口口口 |①---|
口②口口 |----|
①口口口 |②---|
口口口口 |----|
31
口口口口 |①---|
口口②口 |----|
口口口① |②---|
口口口口 |----|
32
口口口口 |①---|
口口口口 |----|
②②口口 |②---|
①①口口 |----|
33
口口口口 |①---|
口口口口 |----|
口口②② |②---|
口口①① |----|
34
口②②口 |①---|
口①①口 |----|
口口口口 |②---|
口口口口 |----|
35
①口口① |①---|
②口口② |②---|
③口口③ |③---|
④口口④ |④---|
36
口口口口 |①---|
口口口口 |----|
口①①口 |----|
口口口口 |----|
37
口口口口 |----|
口口口口 |----|
口口口口 |----|
口口口口 |----|
38
口口口口 |①---|
口口口口 |----|
口口口口 |②---|
①口口② |----|
39
口口口口 |①---|
口②③口 |----|
口①①口 |②---|
口口口口 |③---|
40
①口口② |①---|
③口口④ |②---|
口口口口 |③---|
口口口口 |④---|
41
口口口口 |①---|
③③口口 |②---|
②②口口 |③---|
①①口口 |----|
42
②口口① |①---|
④口口③ |②---|
口口口口 |③---|
口口口口 |④---|
43
口口口口 |①---|
口口③③ |②---|
口口②② |③---|
口口①① |----|
44
①①口口 |①---|
口口口口 |----|
②②口口 |②---|
口口口口 |----|
45
口口口口 |①---|
口口①① |----|
口口口口 |②---|
口口②② |----|
46
口口口口 |①---|
口②②口 |----|
口①①口 |②---|
口口口口 |----|
47
口①①口 |①---|
口口口口 |----|
②口口② |②---|
口口口口 |----|
48
①口口② |①---|
③口口④ |②---|
口口口口 |③---|
口口口口 |④---|
49
口口口口 |①---|
③③口口 |②---|
②②口口 |③---|
①①口口 |----|
50
②口口① |①---|
④口口③ |②---|
口口口口 |③---|
口口口口 |④---|
51
口口口口 |①---|
口口③③ |②---|
口口②② |③---|
口口①① |----|
52
①①口口 |①---|
口口口口 |----|
②②口口 |②---|
口口口口 |----|
53
口口口口 |①---|
口口①① |----|
口口口口 |②---|
口口②② |----|
54
②口口② |①---|
口口口口 |----|
口①①口 |②---|
口口口口 |----|
55
口②②口 |①---|
口口口口 |----|
①口口① |②---|
口口口口 |----|
56
口口口口 |①---|
口①①口 |----|
口口口口 |----|
口口口口 |----|
57
口口口口 |----|
口口口口 |----|
口口口口 |----|
口口口口 |----|
58
口口口口 |----|
口口口口 |----|
口口口口 |----|
口口口口 |----|
59
口口口口 |----|
口①口口 |----|
口口口口 |----|
口口口口 |①---|
60
口口口口 |①---|
口口①口 |----|
②口口口 |②---|
口口口口 |----|
61
口口口口 |①---|
口口③口 |②---|
口②口口 |③---|
口口①口 |----|
62
口①②口 |①---|
口口口口 |----|
口口口口 |②---|
口口口口 |----|
63
口口口口 |①---|
口口口口 |----|
口①①口 |----|
口口口口 |----|


不確定度: 0

最終更新:2013年11月11日 13:37