ツキミチヌ
CULTVOICE by S.S.D. PRODUCTS

ADVANCED

Level: 6
BPM: 146
Notes: 388

1
口口口口 |----|
口口口口 |----|
口口口口 |----|
口口口口 |----|
2
口口②口 |①---|
口③口口 |②---|
口口④口 |③---|
口①口口 |④---|
3
口口口④ |①---|
③口口口 |②---|
口口口② |③---|
口①口口 |④---|
4
口②口口 |①---|
口口③口 |②---|
口④口口 |③---|
口口①口 |④---|
5
口口口口 |①---|
口口⑤③ |②---|
②④口口 |③---|
口口①口 |④-⑤-|
6
②①口② |①---|
口口口口 |②---|
口④④口 |③---|
③口口③ |④---|
7
②口口口 |①---|
口⑥口③ |②-③-|
口口⑤口 |④---|
④①①口 |⑤-⑥-|
8
②口①② |①---|
口口口口 |②---|
口④④口 |③---|
③口口③ |④---|
9
口口口口 |①---|
口①①口 |----|
口口口口 |----|
口口口口 |----|
10
②口③口 |①-②-|
口⑥口⑧ |③-④-|
⑦口⑤口 |⑤-⑥-|
口④口① |⑦-⑧-|
11
①口口口 |①-②-|
⑤口④口 |③-④-|
口③口⑥ |⑤-⑥-|
口⑦口② |⑦---|
12
口口口② |①-②-|
④③口口 |③-④-|
⑧⑦口口 |⑤-⑥-|
①口⑥⑤ |⑦-⑧-|
13
口口口口 |①-②-|
口口②① |③-④-|
口口⑤口 |⑤---|
④③口口 |----|
14
口口⑤口 |①-②-|
②⑥口口 |③-④-|
⑧口⑦③ |⑤-⑥-|
口④口① |⑦-⑧-|
15
口②口⑤ |①-②-|
口口口① |③-④-|
口⑥⑥口 |⑤---|
④口③口 |⑥---|
16
②②口口 |①---|
④①①口 |②---|
④口口口 |③---|
口口③③ |④---|
17
口口口口 |①---|
口②②① |②---|
口③③① |③---|
口口口口 |----|
18
②口③口 |①-②-|
口⑥口⑧ |③-④-|
⑦口⑤口 |⑤-⑥-|
口④口① |⑦-⑧-|
19
①口口口 |①-②-|
⑤口④口 |③-④-|
口③口⑥ |⑤-⑥-|
口⑦口② |⑦---|
20
口口口② |①-②-|
④③口口 |③-④-|
⑧⑦口口 |⑤-⑥-|
①口⑥⑤ |⑦-⑧-|
21
口口口口 |①-②-|
口口②① |③-④-|
口口⑤口 |⑤---|
④③口口 |----|
22
口口⑤口 |①-②-|
②⑥口口 |③-④-|
⑧口⑦③ |⑤-⑥-|
口④口① |⑦-⑧-|
23
口②口⑤ |①-②-|
⑥口口① |③-④-|
口口口口 |⑤-⑥-|
④口③⑦ |⑦---|
24
③①①③ |①---|
口口口口 |②---|
口口口口 |③---|
④②②④ |④---|
25
口口口口 |①---|
口①①口 |----|
口①①口 |----|
口口口口 |----|
26
⑧②口口 |①-②-|
④口⑤口 |③-④-|
口⑥口③ |⑤-⑥-|
口口①⑦ |⑦-⑧-|
27
口口①口 |①-②-|
⑥口⑦③ |③-④-|
④口口⑤ |⑤-⑥-|
口②口口 |⑦---|
28
口口⑦⑧ |①-②-|
⑤⑥口口 |③-④-|
口口③④ |⑤-⑥-|
①②口口 |⑦-⑧-|
29
①②口口 |①-②-|
口口③④ |③-④-|
⑤⑥⑥口 |⑤---|
口口口口 |--⑥-|
30
②口口口 |①---|
口口口③ |②-③-|
④⑤⑤口 |④---|
口①①口 |--⑤-|
31
口④③② |①---|
口口口口 |②-③-|
口口口口 |④---|
口①①口 |----|
32
口口口口 |①-②-|
口口口口 |③-④-|
③⑦⑥② |⑤-⑥-|
①⑤⑧④ |⑦-⑧-|
33
③⑦⑥② |①-②-|
①⑤⑧④ |③-④-|
口口口口 |⑤-⑥-|
口口口口 |⑦-⑧-|
34
③⑦⑥② |①-②-|
口口口口 |③-④-|
口口口口 |⑤-⑥-|
①⑤⑧④ |⑦-⑧-|
35
口口口口 |①---|
①②③④ |②---|
①②③④ |③---|
口口口口 |④---|
36
②①①② |①---|
口口口口 |----|
口口口口 |②---|
口口口口 |----|
37
口口口口 |①---|
口口口口 |----|
口口口口 |②---|
①②②① |----|
38
口口口口 |①---|
口②②口 |----|
口①①口 |②---|
口口口口 |----|
39
①口口① |①---|
②口口② |②---|
④口口③ |③---|
④口口③ |④---|
40
⑤①②⑥ |①-②-|
口③④口 |③-④-|
口口口口 |⑤-⑥-|
⑦口口⑧ |⑦-⑧-|
41
⑤⑤④口 |①-②-|
口③口口 |③-④-|
口口②口 |⑤---|
口①口口 |----|
42
⑧口口⑦ |①-②-|
口口口口 |③-④-|
口④③口 |⑤-⑥-|
⑥②①⑤ |⑦-⑧-|
43
口口①口 |①-②-|
口②口口 |③-④-|
口口③口 |⑤---|
口④⑤⑤ |----|
44
①口口口 |--①-|
②⑤⑤口 |②-③-|
③口口口 |④---|
④口口口 |⑤---|
45
口口口① |--①-|
口口口② |②-③-|
口⑤⑤③ |④---|
口口口④ |⑤---|
46
③口口③ |----|
②口口② |①---|
①口口① |②---|
口口口口 |③---|
47
口口口口 |①---|
③②②③ |②---|
③①①③ |③---|
口口口口 |----|
48
⑤①②⑥ |①-②-|
口③④口 |③-④-|
口口口口 |⑤-⑥-|
⑦口口⑧ |⑦-⑧-|
49
⑤⑤④口 |①-②-|
口③口口 |③-④-|
口口②口 |⑤---|
口①口口 |----|
50
⑧口口⑦ |①-②-|
口口口口 |③-④-|
口④③口 |⑤-⑥-|
⑥②①⑤ |⑦-⑧-|
51
口口①口 |①-②-|
口②口口 |③-④-|
口口③口 |⑤---|
口④⑤⑤ |----|
52
①口口口 |①---|
口②口口 |----|
①口口口 |②---|
口②口口 |----|
53
口口口① |①---|
口口②口 |----|
口口口① |②---|
口口②口 |----|
54
③②①③ |----|
②口口① |①---|
①口口② |②---|
口①②口 |③---|
55
口④④口 |①---|
口③③口 |②---|
口②②口 |③---|
①口口① |④---|
56
①口口① |①---|
口口口口 |----|
口口口口 |----|
口口口口 |----|
57
口口口口 |----|
口口口口 |----|
口口口口 |----|
口口口口 |----|
58
口②口口 |①---|
口口③口 |②---|
口④口口 |③---|
口口①口 |④---|
59
口口口口 |①---|
口口③口 |----|
口②口口 |----|
口口①口 |②-③-|
60
②①口② |①---|
口口口口 |②---|
口④④口 |③---|
③口口③ |④---|
61
②口口口 |①---|
口⑥口③ |②-③-|
口口⑤口 |④---|
④①①口 |⑤-⑥-|
62
②口①② |①---|
口口口口 |②---|
口④④口 |③---|
③口口③ |④---|
63
①口口① |①---|
口①①口 |----|
口口口口 |----|
口口口口 |----|


不確定度: 0

最終更新:2013年11月11日 13:36