Move That Body
Expander

BASIC

Level: 4
BPM: 196
Notes: 331

1
口口口口 |----|
口口口口 |----|
口口口口 |----|
口口口口 |----|
2
②口口② |①---|
口口口口 |②---|
口①①口 |----|
口口口口 |----|
3
口口口口 |①---|
口①②口 |----|
口口口口 |②---|
口口口口 |----|
4
①口口② |①---|
①口口② |----|
口口口口 |②---|
口口口口 |----|
5
口口口口 |①---|
口③口口 |②---|
口口②口 |③---|
口①口口 |----|
6
①口口① |①---|
口口口口 |②---|
②口口② |----|
口口口口 |----|
7
口口口口 |①---|
口①②口 |----|
口口口口 |②---|
口口口口 |----|
8
口口口口 |①---|
口口口口 |----|
①口口② |②---|
①口口② |----|
9
口口口口 |①---|
口①口口 |②---|
口口②口 |③---|
口③口口 |----|
10
①口口① |①---|
口口口口 |----|
口口口口 |②---|
②口口② |----|
11
口口口口 |①---|
④③②① |②---|
口口口口 |③---|
口口口口 |④---|
12
口口口口 |----|
口口口口 |----|
口口口口 |①---|
口①①口 |----|
13
口口口口 |①---|
口口口口 |②---|
①②③④ |③---|
口口口口 |④---|
14
①口口① |①---|
口口口口 |----|
口口口口 |②---|
②口口② |----|
15
口口口口 |①---|
①②③④ |②---|
口口口口 |③---|
口口口口 |④---|
16
口②①口 |----|
口口口口 |----|
口口口口 |①---|
口口口口 |②---|
17
口口口口 |①---|
口口口口 |②---|
④③②① |③---|
口口口口 |④---|
18
①口口① |①---|
口口口口 |----|
口口口口 |②---|
②口口② |----|
19
口口口口 |①---|
④③②① |②---|
口口口口 |③---|
口口口口 |④---|
20
口口口口 |----|
口口口口 |----|
口口口口 |①---|
口①①口 |----|
21
口口口口 |①---|
口口口口 |②---|
①②③④ |③---|
口口口口 |④---|
22
①口口① |①---|
口口口口 |----|
口口口口 |②---|
②口口② |----|
23
口口口口 |①---|
①②③④ |②---|
口口口口 |③---|
口口口口 |④---|
24
口②①口 |----|
口口口口 |----|
口口口口 |①---|
口口口口 |②---|
25
口口口口 |①---|
口口口口 |②---|
④③②① |③---|
口口口口 |④---|
26
口口口口 |①---|
口①①口 |----|
口口口口 |----|
口口口口 |----|
27
口口口口 |①---|
口①①口 |----|
口口口口 |----|
口口口口 |----|
28
口口口口 |①---|
口①①口 |----|
口口口口 |----|
口口口口 |----|
29
口口口口 |①---|
口①①口 |----|
③口口② |②---|
口口口口 |③---|
30
口口口口 |①---|
口①①口 |----|
口口口口 |----|
口口口口 |----|
31
口口口口 |①---|
口①①口 |----|
口口口口 |----|
口口口口 |----|
32
口口口口 |①---|
口①①口 |----|
口口口口 |----|
口口口口 |----|
33
口③③口 |①---|
口①①口 |②---|
口②②口 |③---|
口口口口 |----|
34
口口口口 |①---|
口口口口 |②---|
③口口④ |③---|
①口口② |④---|
35
口③④口 |①---|
口①②口 |②---|
口口口口 |③---|
口口口口 |④---|
36
①口口② |①---|
③口口④ |②---|
口口口口 |③---|
口口口口 |④---|
37
口口口口 |①---|
口口口口 |②---|
口①②口 |③---|
口③口口 |----|
38
口口口口 |①---|
口口口口 |②---|
③口口④ |③---|
①口口② |④---|
39
口③④口 |①---|
口①②口 |②---|
口口口口 |③---|
口口口口 |④---|
40
①口口② |①---|
③口口④ |②---|
口口口口 |③---|
口口口口 |④---|
41
口③③口 |①---|
口①①口 |②---|
口②②口 |③---|
口口口口 |----|
42
口口口口 |①---|
口口口口 |----|
②②口口 |②---|
①口口口 |----|
43
口口口口 |①---|
口口口口 |----|
口口②② |②---|
口口口① |----|
44
②②口口 |①---|
口①口口 |----|
口口口口 |②---|
口口口口 |----|
45
口口②② |①---|
口口①口 |----|
口口口口 |②---|
口口口口 |----|
46
①口口口 |①---|
②②口口 |----|
口口口口 |②---|
口口口口 |----|
47
口口口① |①---|
口口②② |----|
口口口口 |②---|
口口口口 |----|
48
口口口口 |①---|
口口口口 |----|
口①口口 |②---|
②②口口 |----|
49
口口口口 |①---|
口口口口 |----|
口口①口 |②---|
口口②② |----|
50
口口口口 |①---|
口口口口 |----|
②②口口 |②---|
①口口口 |----|
51
口口口口 |①---|
口口口口 |----|
口口②② |②---|
口口口① |----|
52
②②口口 |①---|
口①口口 |----|
口口口口 |②---|
口口口口 |----|
53
口口②② |①---|
口口①口 |----|
口口口口 |②---|
口口口口 |----|
54
①口口口 |①---|
②②口口 |----|
口口口口 |②---|
口口口口 |----|
55
口口口① |①---|
口口②② |----|
口口口口 |②---|
口口口口 |----|
56
口口口口 |①---|
口口口口 |----|
口①口口 |②---|
②②口口 |----|
57
口口口口 |①---|
口口口口 |----|
口口①口 |②---|
口口②② |----|
58
口口口口 |①---|
口①①口 |----|
口口口口 |②---|
口②②口 |----|
59
②口口② |①---|
口口口口 |----|
①口口① |②---|
口口口口 |----|
60
口②④口 |①---|
口①③口 |②---|
口口口口 |③---|
口口口口 |④---|
61
口口口口 |①---|
①口口① |----|
口口口口 |②---|
②口口② |----|
62
口口口口 |①---|
口①①口 |----|
口口口口 |②---|
口②②口 |----|
63
②口口② |①---|
口口口口 |----|
①口口① |②---|
口口口口 |----|
64
口②④口 |①---|
口①③口 |②---|
口口口口 |③---|
口口口口 |④---|
65
口口口口 |①---|
①口口① |----|
口口口口 |②---|
②口口② |----|
66
口②②口 |①---|
口①口口 |----|
口口口口 |----|
口口口口 |②---|
67
口口口口 |----|
口口口口 |----|
口口口口 |----|
口口口口 |----|
68
口口口口 |①---|
口口口口 |----|
口口①口 |----|
口②②口 |②---|
69
口口口口 |①---|
①口口② |②---|
③口口④ |③---|
口口口口 |④---|
70
口口口口 |①---|
口口口口 |②---|
口②④口 |③---|
口①③口 |④---|
71
口口口口 |①---|
②口口④ |②---|
①口口③ |③---|
口口口口 |④---|
72
口②④口 |①---|
口①③口 |②---|
口口口口 |③---|
口口口口 |④---|
73
①口口① |①---|
②口口② |----|
口口口口 |②---|
口口口口 |----|
74
口口口口 |①---|
口口口口 |②---|
②口口④ |③---|
①口口③ |④---|
75
口口口口 |①---|
口②④口 |②---|
口①③口 |③---|
口口口口 |④---|
76
②口口④ |①---|
①口口③ |②---|
口口口口 |③---|
口口口口 |④---|
77
口口口口 |①---|
口①①口 |----|
口口口口 |②---|
②口口② |----|
78
口口口口 |①---|
口口口口 |②---|
口②④口 |③---|
口①③口 |④---|
79
口口口口 |①---|
②口口④ |②---|
①口口③ |③---|
口口口口 |④---|
80
口②④口 |①---|
口①③口 |②---|
口口口口 |③---|
口口口口 |④---|
81
①口口① |①---|
②口口② |----|
口口口口 |②---|
口口口口 |----|
82
口口口口 |①---|
口口口口 |②---|
②口口④ |③---|
①口口③ |④---|
83
口口口口 |①---|
口②④口 |②---|
口①③口 |③---|
口口口口 |④---|
84
②口口④ |①---|
①口口③ |②---|
口口口口 |③---|
口口口口 |④---|
85
口口口口 |①---|
口①①口 |----|
口口口口 |②---|
②口口② |----|
86
口口口口 |①---|
①②③④ |②---|
口口口口 |③---|
口口口口 |④---|
87
①口口① |①---|
口口口口 |②---|
②口口② |----|
口口口口 |----|
88
口口口口 |①---|
口①②口 |----|
口口口口 |②---|
口口口口 |----|
89
口口口口 |①---|
口口口口 |----|
①口口② |②---|
①口口② |----|
90
①①口口 |①---|
口口②② |②---|
③③口口 |③---|
口口口口 |----|


不確定度: 0

最終更新:2013年11月11日 13:33