Move That Body
Expander

ADVANCED

Level: 7
BPM: 196
Notes: 550

1
口口口口 |----|
口口口口 |----|
口口口口 |----|
口口口口 |----|
2
①①口口 |①---|
口⑤④③ |②---|
口口口口 |--③-|
口口②口 |④-⑤-|
3
口口口口 |①---|
口口口口 |②---|
①口口② |③---|
③口口④ |④---|
4
③①①③ |①---|
口口口口 |②---|
口口口口 |③---|
④②②④ |④---|
5
口口①口 |①---|
口②口口 |②---|
口口③口 |③---|
口口③口 |----|
6
口口①① |①---|
口③④口 |②---|
口⑤⑥口 |③-④-|
口②口口 |⑤-⑥-|
7
口口口口 |①---|
口口口口 |②---|
①口口② |③---|
③口口④ |④---|
8
③①①③ |①---|
口口口口 |②---|
口口口口 |③---|
④②②④ |④---|
9
口口①口 |①---|
口②口口 |②---|
口口③口 |③---|
口口③口 |----|
10
①口口① |①---|
口②③口 |②-③-|
口⑤⑥口 |④-⑤-|
④口口④ |⑥---|
11
口①口口 |①-②-|
⑥⑥口② |③-④-|
③口口口 |--⑤-|
口口④⑤ |⑥---|
12
口口口口 |----|
口口口口 |----|
口①①口 |①---|
口口口口 |----|
13
口⑤①口 |①-②-|
②口口口 |③-④-|
口口⑥③ |--⑤-|
口④口口 |--⑥-|
14
①口口① |①---|
口②③口 |②-③-|
口⑤⑥口 |④-⑤-|
④口口④ |⑥---|
15
口①口口 |①-②-|
⑥⑥口② |③-④-|
③口口口 |--⑤-|
口口④⑤ |⑥---|
16
③③①① |----|
口口口口 |--①-|
口口口口 |②-③-|
②②④④ |④---|
17
口口口口 |①-②-|
⑥②①⑤ |③-④-|
⑥④③⑤ |--⑤-|
口口口口 |--⑥-|
18
①口口① |①---|
口②③口 |②-③-|
口⑤⑥口 |④-⑤-|
④口口④ |⑥---|
19
口①口口 |①-②-|
⑥⑥口② |③-④-|
③口口口 |--⑤-|
口口④⑤ |⑥---|
20
口口口口 |----|
口口口口 |----|
口①①口 |①---|
口口口口 |----|
21
口⑤①口 |①-②-|
②口口口 |③-④-|
口口⑥③ |--⑤-|
口④口口 |--⑥-|
22
①口口① |①---|
口②③口 |②-③-|
口⑤⑥口 |④-⑤-|
④口口④ |⑥---|
23
口①口口 |①-②-|
⑥⑥口② |③-④-|
③口口口 |--⑤-|
口口④⑤ |⑥---|
24
③③①① |----|
口口口口 |--①-|
口口口口 |②-③-|
②②④④ |④---|
25
口口口口 |①-②-|
⑥②①⑤ |③-④-|
⑥④③⑤ |--⑤-|
口口口口 |--⑥-|
26
口口口口 |①---|
口口口口 |--②-|
口口口口 |----|
②口口① |----|
27
口②①口 |①-②-|
口④③口 |③-④-|
口⑥⑤口 |⑤-⑥-|
口⑧⑦口 |⑦-⑧-|
28
口口口口 |①---|
②口口① |②---|
口④③口 |③-④-|
口口口⑤ |⑤---|
29
②口口① |①-②-|
④口口③ |③-④-|
⑥口口⑤ |⑤-⑥-|
⑧口口⑦ |⑦-⑧-|
30
②口口① |①---|
口口口口 |--②-|
口④③口 |--③-|
口口口口 |④---|
31
②口口① |①---|
口口口口 |--②-|
口④③口 |--③-|
口口口口 |④---|
32
口口口口 |①-②-|
口⑤⑤口 |③-④-|
口口口口 |⑤---|
①②③④ |----|
33
①③③① |①---|
口口口口 |②---|
②口口② |③---|
口④④口 |④---|
34
①口口② |①---|
口口口口 |--②-|
口③④口 |--③-|
口口口口 |④---|
35
①口口② |①---|
口口口口 |--②-|
口③④口 |--③-|
口口口口 |④---|
36
①口口⑤ |①-②-|
②口口⑥ |③-④-|
③口口⑦ |⑤-⑥-|
④口口⑧ |⑦-⑧-|
37
口①②口 |①-②-|
口③④口 |③-④-|
口⑤⑥口 |⑤-⑥-|
口⑦⑧口 |⑦-⑧-|
38
①口口② |①---|
口口口口 |--②-|
口③④口 |--③-|
口口口口 |④---|
39
①口口② |①---|
口口口口 |--②-|
口③④口 |--③-|
口口口口 |④---|
40
口口口口 |①-②-|
口口口口 |③-④-|
⑤⑥⑦⑧ |⑤-⑥-|
①②③④ |⑦-⑧-|
41
①口口① |①---|
口③③口 |②---|
口口口口 |③---|
②口口② |----|
42
②②口口 |①---|
口口口③ |②---|
口④口口 |③---|
口①口口 |--④-|
43
④④③③ |--①-|
口口口口 |②---|
口口口口 |③---|
口①②口 |④---|
44
口口口口 |--①-|
口口④口 |----|
口③②口 |②-③-|
①口口① |--④-|
45
①口口① |----|
②口口② |①---|
③口口③ |②---|
口口口口 |③---|
46
④②口④ |①---|
口口口口 |②---|
口③口口 |③---|
口口口① |--④-|
47
口①口口 |--①-|
口③②口 |②-③-|
口⑤④口 |④-⑤-|
口⑦⑥口 |⑥-⑦-|
48
⑤口口口 |--①-|
③口口④ |②-③-|
①⑥⑥② |④-⑤-|
口口口口 |--⑥-|
49
口①②口 |--①-|
③口口④ |②-③-|
⑤口口⑥ |④-⑤-|
⑦口口口 |⑥-⑦-|
50
口口②② |①---|
③口口口 |②---|
口口④口 |③---|
口口①口 |--④-|
51
③③④④ |--①-|
口口口口 |②---|
口口口口 |③---|
口②①口 |④---|
52
口口口口 |--①-|
口④口口 |----|
口②③口 |②-③-|
①口口① |--④-|
53
①口口口 |--①-|
③口口② |②-③-|
⑤口口④ |④-⑤-|
口口口⑥ |⑥---|
54
④口②④ |①---|
口口口口 |②---|
口①③口 |③---|
口口口口 |--④-|
55
口口①口 |--①-|
口②③口 |②-③-|
口④⑤口 |④-⑤-|
口⑥⑦口 |⑥-⑦-|
56
口口口⑤ |--①-|
④口口③ |②-③-|
②⑥⑥① |④-⑤-|
口口口口 |--⑥-|
57
口②①口 |--①-|
④口口③ |②-③-|
⑥口口⑤ |④-⑤-|
口口口⑦ |⑥-⑦-|
58
口口口② |①---|
口口口② |----|
口①口口 |②---|
口①口口 |----|
59
口②口口 |①---|
口口②口 |----|
口口口② |②---|
①口口① |----|
60
口口②口 |①---|
①口口② |----|
口①口口 |②---|
口口口口 |----|
61
口②口② |①---|
口口口口 |----|
口口口口 |②---|
①口①口 |----|
62
②口口口 |①---|
②口口口 |----|
口口①口 |②---|
口口①口 |----|
63
口口②口 |①---|
口②口口 |----|
②口口口 |②---|
①口口① |----|
64
口②口口 |①---|
②口口① |----|
口口①口 |②---|
口口口口 |----|
65
②口②口 |①---|
口口口口 |----|
口口口口 |②---|
口①口① |----|
66
③口④④ |①---|
口口口口 |②---|
口口口① |③---|
②口口口 |④---|
67
口②③③ |----|
口口口口 |①---|
口口口口 |②---|
口①口口 |③---|
68
口③口口 |----|
口口口② |①---|
口口口口 |②---|
①口口口 |③---|
69
①口口② |①---|
口①②口 |②---|
口③④口 |③---|
③口口④ |④---|
70
口①①口 |①---|
②③④② |②---|
口⑤⑥口 |③-④-|
口口口口 |⑤-⑥-|
71
④口口⑤ |①-②-|
⑥口口⑦ |③---|
口口口口 |④-⑤-|
①②③口 |⑥-⑦-|
72
⑦⑤⑥⑧ |①-②-|
口③④口 |③-④-|
口①②口 |⑤-⑥-|
口口口口 |⑦-⑧-|
73
口口口口 |①-②-|
口口口口 |③-④-|
①②③④ |⑤-⑥-|
⑤⑥⑦⑧ |⑦-⑧-|
74
口①①口 |①---|
口②②口 |②---|
③口口④ |③-④-|
口⑤⑥口 |⑤-⑥-|
75
③口口④ |①-②-|
口口⑤② |③---|
口①口口 |④---|
口口口口 |⑤---|
76
口口口口 |①-②-|
⑦口口⑧ |③-④-|
⑤③④⑥ |⑤-⑥-|
口①②口 |⑦-⑧-|
77
③口口⑥ |①-②-|
口①②口 |③-④-|
口⑦④口 |⑤-⑥-|
⑤口口⑧ |⑦-⑧-|
78
口①①口 |①---|
②③④② |②---|
口⑤⑥口 |③-④-|
口口口口 |⑤-⑥-|
79
④口口⑤ |①-②-|
⑥口口⑦ |③---|
口口口口 |④-⑤-|
①②③口 |⑥-⑦-|
80
⑦⑤⑥⑧ |①-②-|
口③④口 |③-④-|
口①②口 |⑤-⑥-|
口口口口 |⑦-⑧-|
81
口口口口 |①-②-|
口口口口 |③-④-|
①②③④ |⑤-⑥-|
⑤⑥⑦⑧ |⑦-⑧-|
82
口①①口 |①---|
口②②口 |②---|
③口口④ |③-④-|
口⑤⑥口 |⑤-⑥-|
83
③口口④ |①-②-|
口口⑤② |③---|
口①口口 |④---|
口口口口 |⑤---|
84
口口口口 |①-②-|
⑦口口⑧ |③-④-|
⑤③④⑥ |⑤-⑥-|
口①②口 |⑦-⑧-|
85
③口口⑥ |①-②-|
口①②口 |③-④-|
口⑦④口 |⑤-⑥-|
⑤口口⑧ |⑦-⑧-|
86
口①口口 |①-②-|
口④③② |③-④-|
⑥⑦⑧口 |⑤-⑥-|
口口⑤口 |⑦-⑧-|
87
口口①① |①---|
口③④口 |②---|
口⑤⑥口 |③-④-|
口②口口 |⑤-⑥-|
88
口口口口 |①---|
口口口口 |②---|
①口口② |③---|
③口口④ |④---|
89
口①①口 |①---|
口口口④ |②---|
口⑤口口 |③-④-|
③②②口 |⑤---|
90
②口口① |①---|
口①②口 |②---|
②口口① |③---|
③③③③ |----|


不確定度: 0

最終更新:2013年11月11日 13:32