WAVES; Q;indivi+WISE
Q;indivi+

ADVANCED

Level: 6
BPM: 127
Notes: 441

1
口口口口 |----|
口口口口 |----|
口口口口 |----|
口口口口 |----|
2
①口口② |①---|
①③口② |②---|
口口④口 |③--④|
口⑤口口 |--⑤-|
3
①口口② |①---|
①口口② |②---|
口口口口 |③---|
③③④④ |④---|
4
①口口② |①---|
①③口② |②---|
口口④口 |③--④|
口⑤口口 |--⑤-|
5
①口口② |①---|
①口口② |②---|
口口口口
口口口口

口口口口
④口口④
口口口口 |--③-|
③口口③ |--④-|
6
①口口① |①---|
口口口口 |----|
口②口口 |②---|
口口②口 |----|
7
口口口口 |①---|
④口④口 |--②-|
口③①③ |③---|
②①②口 |④---|
8
②②②② |①---|
口①口① |--②-|
口口口口 |----|
口口口口 |----|
9
口口口口 |----|
口①④口 |--①-|
③口口② |②-③-|
口②③口 |④---|
10
②②②② |①---|
③口口口 |--②-|
④①①③ |----|
口口口④ |③-④-|
11
①②口口 |----|
口③④口 |--①-|
口口⑤口 |②-③-|
口口口口 |④-⑤-|
12
口口④口 |--①-|
口口口口 |--②-|
口②口口 |--③-|
①①③③ |--④-|
13
口②口口 |--①-|
①①③③ |--②-|
口口④④ |--③-|
口口口口 |④---|
14
①口口① |①---|
口口口口 |----|
口②口口 |②---|
口口②口 |----|
15
口口口口 |①---|
口口口口 |--②-|
口口①口
②①②口

口口口口
口⑤口⑤
④③④③ |③-④-|
口口口口 |⑤---|
16
②②②② |①---|
①口①口 |--②-|
口口口口 |----|
口口口口 |----|
17
口③口口 |----|
③口口口 |--①-|
口①口口 |--②-|
口口②口 |--③-|
18
①口②③ |--①-|
口①③② |--②-|
口④口口 |--③-|
口口④口 |--④-|
19
③口口口 |--①-|
④②②③ |--②-|
⑤口①④ |--③-|
口①口⑤ |④-⑤-|
20
口口口口 |----|
口口口口 |----|
口口口口 |----|
①口①口 |--①-|
21
④④④④ |①---|
②③②③ |②---|
口①口① |③---|
口口口口 |④---|
22
口口口口 |①---|
口③口口 |②---|
①口④② |③--④|
①⑤口② |--⑤-|
23
①口口② |①---|
①口③② |②---|
口④口口 |③--④|
口口⑤口 |--⑤-|
24
口口口口 |①---|
口③口口 |②---|
①口④② |③--④|
①⑤口② |--⑤-|
25
①口口② |①---|
①口③② |②---|
口④口口 |③--④|
口口⑤口 |--⑤-|
26
①口口口 |①---|
①③口口 |②---|
口口④② |③--④|
口⑤口② |--⑤-|
27
③口口② |①---|
③口口② |②---|
①口口④ |③---|
①口口④ |④---|
28
口口口② |①---|
口③口② |②---|
①口④口 |③--④|
①⑤口口 |--⑤-|
29
①口口④ |①---|
①口口④ |②---|
③口口② |③---|
③口口② |④---|
30
口口口口 |①---|
①①①口 |----|
口②②② |②---|
口口口口 |----|
31
口口口口 |①---|
口①①① |②---|
②②②口 |③---|
口③③③ |----|
32
口口口口 |----|
⑤⑤⑥口 |①-②-|
口④③③ |③-④-|
①①②口 |⑤-⑥-|
33
③②①① |①---|
口口口口 |②-③-|
④口口口 |----|
口口口口 |--④-|
34
口口口口 |①---|
口①①① |----|
②②②口 |②---|
口口口口 |----|
35
口口口口 |①---|
①①①口 |②---|
口②②②
口口口口

口口口口
④口口口
口口口口 |③---|
③③③口 |④---|
36
口口口口 |①---|
口口口① |②-③-|
口口口口
口③②②

口口口口
口⑦⑥⑥
④④⑤口 |④-⑤-|
口口口口 |⑥-⑦-|
37
①①②③ |①---|
口口口口 |②-③-|
④口口④ |----|
口口口口 |④---|
38
②③口口 |①---|
①口口① |②-③-|
口口口口
口口口口

口口口口
口口⑥⑤
口④④口 |④-⑤-|
口⑦⑦口 |⑥-⑦-|
39
口口口口 |①-②-|
①②口口 |③-④-|
口口④③
口口口口

口口口口
⑦口口口
口⑥口口 |⑤-⑥-|
⑤口口口 |⑦---|
40
②③口① |①---|
口口⑥⑤ |②-③-|
口④④口 |④-⑤-|
口⑦⑦口 |⑥-⑦-|
41
口口口口 |①-②-|
①②口口 |③-④-|
口口④③
口口口口

口口口口
⑦口口口
口⑥口口 |⑤-⑥-|
⑤口口口 |⑦---|
42
②③口① |①---|
口口⑥⑤ |②-③-|
口④④口 |④-⑤-|
口⑦⑦口 |⑥-⑦-|
43
⑤口口⑥ |①-②-|
①②口口 |③-④-|
口口④③ |----|
口口口口 |⑤-⑥-|
44
口口口口 |①-②-|
③①②④ |③-④-|
⑦⑤⑥⑧ |⑤-⑥-|
口口口口 |⑦-⑧-|
45
⑦口口⑦ |①-②-|
⑥口口⑥ |③-④-|
口⑤⑤口 |--⑤-|
③①②④ |⑥-⑦-|
46
口口口口 |①---|
口③口口 |②---|
①口④② |③--④|
①⑤口② |--⑤-|
47
①口口② |①---|
①口③② |②---|
口⑤⑤口 |③-④-|
口④④口 |⑤---|
48
①口口① |①---|
口口口口 |----|
口②口口 |②---|
口口②口 |----|
49
口口口口 |①---|
口口口口 |--②-|
口口①口
②①②口

口口口口
口⑤口⑤
④③④③ |③-④-|
口口口口 |⑤---|
50
②②②② |①---|
①口①口 |--②-|
口口口口 |----|
口口口口 |----|
51
口③口口 |----|
③口口口 |--①-|
口①口口 |--②-|
口口②口 |--③-|
52
①口②③ |--①-|
口①③② |--②-|
口④口口 |--③-|
口口④口 |--④-|
53
③口口口 |--①-|
④②②③ |--②-|
⑤口①④ |--③-|
口①口⑤ |④-⑤-|
54
口口口口 |----|
口口口口 |----|
口口口口 |----|
①口①口 |--①-|
55
④④④④ |①---|
②③②③ |②---|
口①口① |③---|
⑤口口口 |④-⑤-|
56
口口⑦⑦ |--①-|
口口口口 |②-③-|
④⑤⑥口 |④-⑤-|
口③②① |⑥-⑦-|
57
口口口④ |--①-|
①①口口 |--②-|
口③②② |--③-|
口口口口 |--④-|
58
①②③口 |--①-|
⑦⑥⑤④ |②-③-|
口口口口 |④-⑤-|
口口口口 |⑥-⑦-|
59
①口口口 |----|
②口口口 |----|
口口口口 |----|
口口口口 |①-②-|
60
口口④口 |①---|
口①④② |--②-|
口①口② |--③-|
口口口③ |--④-|
61
③口口口 |--①-|
④②口口 |--②-|
口②①⑤ |--③-|
口口口口 |④-⑤-|
62
口口口口 |①---|
口口口口 |----|
口口口口 |----|
②口②① |--②-|
63
④④④④ |①---|
②③②③ |②---|
口①口① |③---|
口口口口 |④---|


不確定度: 0

タグ:

+ タグ編集
  • タグ:

このサイトはreCAPTCHAによって保護されており、Googleの プライバシーポリシー利用規約 が適用されます。

最終更新:2013年04月07日 23:13