蒼天
Tatsh

BASIC

Level: 3
BPM: 176
Notes: 221

1
口口口口 |----|
口口口口 |----|
口口口口 |----|
口口口口 |----|
2
口口口口 |①---|
口①①口 |----|
口口口口 |----|
口口口口 |----|
3
口口口口 |----|
口口口口 |----|
口口口口 |----|
口口口口 |----|
4
口口口口 |①---|
口口口口 |----|
口①①口 |----|
口口口口 |----|
5
口口口口 |----|
口口口口 |----|
口口口口 |----|
口口口口 |----|
6
口口口口 |①---|
①口口① |----|
口口口口 |----|
口口口口 |----|
7
口口口口 |----|
口口口口 |----|
口口口口 |----|
口口口口 |----|
8
口口口口 |①---|
口口口口 |----|
①口口① |----|
口口口口 |----|
9
口口口口 |----|
口口口口 |----|
口口口口 |----|
口口口口 |----|
10
口口口口 |①---|
口口口口 |②---|
口口口口 |③---|
④③②① |④---|
11
口口口口 |①---|
口口口口 |②---|
①②③④ |③---|
口口口口 |④---|
12
口口口口 |①---|
④③②① |②---|
口口口口 |③---|
口口口口 |④---|
13
①②③④ |①---|
口口口口 |②---|
口口口口 |③---|
口口口口 |④---|
14
口口口口 |①---|
④③②① |②---|
口口口口 |③---|
口口口口 |④---|
15
口口口口 |①---|
口口口口 |②---|
①②③④ |③---|
口口口口 |④---|
16
口口口口 |①---|
口口口口 |②---|
口口口口 |③---|
口③②① |----|
17
口口口口 |①---|
口口①口 |----|
口口②口 |②---|
口口口口 |----|
18
口口口口 |①---|
口①口口 |----|
口②口口 |②---|
口口口口 |----|
19
口口②口 |①---|
口①①口 |----|
口②口口 |②---|
口口口口 |----|
20
口②口口 |①---|
口①①口 |----|
口口②口 |②---|
口口口口 |----|
21
口口②口 |①---|
口①①口 |----|
口②口口 |②---|
口口口口 |----|
22
口口口口 |①---|
口口口口 |②---|
④③②① |③---|
口口口口 |④---|
23
口口②口 |①---|
口①①口 |----|
口②口口 |②---|
口口口口 |----|
24
口②口口 |①---|
口①①口 |----|
口口②口 |②---|
口口口口 |----|
25
口口口口 |①---|
①口口① |----|
②口口② |②---|
口口口口 |----|
26
口口口口 |①---|
口①①口 |----|
口②②口 |②---|
口口口口 |----|
27
口口口口 |----|
口口口口 |①---|
①口口① |----|
口口口口 |----|
28
口口口口 |①---|
①口口① |----|
口口口口 |----|
口口口口 |----|
29
口口口口 |----|
口口口口 |①---|
口①①口 |----|
口口口口 |----|
30
口口口口 |①---|
口①①口 |----|
口口口口 |----|
口口口口 |----|
31
口口口口 |①---|
口口口口 |----|
口①①口 |----|
口口口口 |----|
32
口口口口 |①---|
口口口口 |----|
口②①口 |②---|
口口口口 |----|
33
口口口口 |①---|
口①①口 |----|
口口口口 |----|
口口口口 |----|
34
口①①口 |①---|
口口口口 |----|
口口口口 |----|
口口口口 |----|
35
口口口口 |----|
口口口口 |----|
口口口口 |----|
口口口口 |----|
36
口③③口 |①---|
口口②口 |②---|
口口①口 |③---|
口口口口 |----|
37
口③③口 |①---|
口②口口 |②---|
口①口口 |③---|
口口口口 |----|
38
口③③口 |①---|
口口②口 |②---|
口口①口 |③---|
口口口口 |----|
39
口③③口 |①---|
口②口口 |②---|
口①口口 |③---|
口口口口 |----|
40
口口口口 |①---|
口③③口 |②---|
口口②① |③---|
口口口口 |----|
41
口口口口 |①---|
口③③口 |②---|
①②口口 |③---|
口口口口 |----|
42
口口口口 |①---|
口②口口 |----|
口口①口 |②---|
口口口口 |----|
43
口②②口 |①---|
口口①口 |----|
口口口口 |②---|
口口口口 |----|
44
口口口口 |①---|
口口②① |----|
口口口口 |②---|
口口口口 |----|
45
口口口口 |①---|
②①口口 |----|
口口口口 |②---|
口口口口 |----|
46
口口口口 |①---|
口口口口 |----|
①②口口 |②---|
口口口口 |----|
47
口口口口 |①---|
口口口口 |----|
口口①② |②---|
口口口口 |----|
48
口口口口 |①---|
口①①口 |----|
口口口口 |----|
口口口口 |----|
49
口口口口 |①---|
口口口口 |----|
口①①口 |----|
口口口口 |----|
50
①口口① |①---|
②口口② |----|
口口口口 |②---|
口口口口 |----|
51
口口口口 |①---|
口口口口 |----|
①口口① |----|
口口口口 |----|
52
口口口口 |①---|
口①①口 |----|
口口口口 |----|
口口口口 |----|
53
口口口口 |----|
口口口口 |----|
口口口口 |----|
口口口口 |----|
54
口口口口 |①---|
口②①口 |----|
口口口口 |②---|
口口口口 |----|
55
口口口口 |①---|
口口口口 |----|
口②①口 |②---|
口口口口 |----|
56
口口口口 |①---|
②口口① |----|
口口口口 |②---|
口口口口 |----|
57
口口口口 |①---|
口口口口 |----|
②口口① |②---|
口口口口 |----|
58
口口口口 |①---|
口②①口 |----|
口口口口 |②---|
口口口口 |----|
59
口口口口 |①---|
口口口口 |----|
口②①口 |②---|
口口口口 |----|
60
口口口口 |①---|
②口口① |----|
口口口口 |②---|
口口口口 |----|
61
口口口口 |①---|
口口口口 |----|
②口口① |②---|
口口口口 |----|
62
口口口口 |①---|
口①①口 |----|
口口口口 |----|
口口口口 |----|
63
口口口口 |①---|
口口④② |②---|
口口③① |③---|
口口口口 |④---|
64
口口口口 |①---|
④②口口 |②---|
③①口口 |③---|
口口口口 |④---|
65
口口口口 |①---|
口口④② |②---|
口口③① |③---|
口口口口 |④---|
66
口口口口 |①---|
口①口口 |②---|
口②口口 |③---|
口③口口 |----|
67
口口口口 |①---|
口口④② |②---|
口口③① |③---|
口口口口 |④---|
68
口口口口 |①---|
④②口口 |②---|
③①口口 |③---|
口口口口 |④---|
69
口口④口 |①---|
口口③口 |②---|
口口②口 |③---|
口口①口 |④---|
70
口①口口 |①---|
口②口口 |②---|
口③口口 |③---|
口④口口 |④---|
71
口口④口 |①---|
口口③口 |②---|
口口②口 |③---|
口口①口 |④---|
72
①口口① |①---|
②口口② |--②-|
③口口③ |----|
口口口口 |③---|
73
口口②口 |----|
口口①口 |----|
口口口口 |①---|
口口口口 |②---|
74
①口口① |①---|
②口口② |--②-|
③口口③ |----|
口口口口 |③---|
75
口②口口 |----|
口①口口 |----|
口口口口 |①---|
口口口口 |②---|
76
①口口① |①---|
②口口② |--②-|
③口口③ |----|
口口口口 |③---|
77
口口口口 |----|
口口口口 |----|
口口口口 |----|
口口口口 |----|
78
①口口① |①---|
②口口② |--②-|
口口口口 |----|
口口口口 |----|
79
①口口① |①---|
②口口② |--②-|
③口口③ |----|
口口口口 |③---|


不確定度: 0

最終更新:2013年11月11日 13:28