蒼天
Tatsh

ADVANCED

Level: 6
BPM: 176
Notes: 393

1
口口口口 |----|
口口口口 |----|
口口口口 |----|
口口口口 |----|
2
口口③口 |①---|
口②口口 |--②-|
口①口口 |--③-|
口口口口 |----|
3
口口口口 |----|
口口口口 |----|
口口口口 |----|
口口口口 |----|
4
口①口口 |①---|
口口②口 |--②-|
口口③口 |--③-|
口口口口 |----|
5
口口口口 |----|
口口口口 |----|
口口口口 |----|
口口口口 |----|
6
口口③口 |①---|
口②口口 |--②-|
口①口口 |--③-|
口口口口 |----|
7
口口口口 |----|
口口口口 |----|
口口口口 |----|
口口口口 |----|
8
口①口口 |①---|
口口②口 |--②-|
口口③口 |--③-|
口口口口 |----|
9
口口口口 |----|
口口口口 |----|
口口口口 |----|
口口口口 |----|
10
口口③口 |①---|
口口④口 |②---|
①②口口 |③---|
口口口口 |④---|
11
口口口口 |①---|
②①口口 |②---|
口口口④ |③---|
口口口③ |④---|
12
口口口口 |①---|
口口③④ |②---|
口②口口 |③---|
口①口口 |④---|
13
②口口口 |①---|
①口口口 |②---|
口口④③ |③---|
口口口口 |④---|
14
口口口③ |①---|
口口口④ |②---|
口口口口 |③---|
①②口口 |④---|
15
口口口口 |①---|
①②口口 |②---|
口口④口 |③---|
口口③口 |④---|
16
口③③口 |①---|
口口口口 |②---|
口②口口 |③---|
口①④口 |--④-|
17
口③口④ |--①-|
⑤口②口 |②-③-|
口①口口 |④---|
口口口口 |⑤---|
18
口口口口 |①---|
口口口口 |----|
口口口① |②---|
②口口口 |----|
19
口口口⑦ |①-②-|
口④③⑥ |③-④-|
口②①⑤ |⑤--⑥|
口口口口 |--⑦-|
20
⑦口口口 |①-②-|
⑥③④口 |③-④-|
⑤①②口 |⑤--⑥|
口口口口 |--⑦-|
21
口口口⑦ |①-②-|
口④③⑥ |③-④-|
口②①⑤ |⑤--⑥|
口口口口 |--⑦-|
22
口②②口 |①---|
③口口③ |②---|
口①①口 |③---|
④口口④ |④---|
23
口口口⑦ |①-②-|
口④③⑥ |③-④-|
口②①⑤ |⑤--⑥|
口口口口 |--⑦-|
24
⑦口口口 |①-②-|
⑥③④口 |③-④-|
⑤①②口 |⑤--⑥|
口口口口 |--⑦-|
25
口②口口 |①---|
口口③口 |②-③-|
口口①口
口口口口

口口口口
口④口口
口口⑤口 |--④-|
口口口口 |--⑤-|
26
口口口口 |--①-|
口口口口 |--②-|
口口口口 |----|
口①②口 |----|
27
口口口① |----|
口口口② |①---|
口口口③ |②---|
口口口口 |③---|
28
口口口口 |①---|
口①口口 |--②-|
口②口口 |--③-|
口口③口 |----|
29
①口口口 |----|
②口口口 |①---|
③口口口 |②---|
口口口口 |③---|
30
口口口口 |①---|
口口①口 |--②-|
口口②口 |--③-|
口③口口 |----|
31
口③口口 |--①-|
④口②④ |②-③-|
口①口口 |--④-|
口口口口 |----|
32
口口口口 |①---|
口口口口 |----|
②口口② |②---|
①口口① |----|
33
口口口口 |①---|
①口口① |----|
口口口口 |----|
口口口口 |----|
34
①①①① |①---|
口口口口 |----|
口口口口 |----|
口口口口 |----|
35
口口口口 |----|
口口口口 |----|
口口口口 |----|
口口口口 |----|
36
⑤④口③ |①-②-|
口口口② |③---|
口口口① |④--⑤|
⑥口口口 |--⑥-|
37
⑤④口③ |①-②-|
口口口② |③---|
口口口① |④--⑤|
⑥口口口 |--⑥-|
38
⑤④①口 |①-②-|
口口②口 |③---|
口口③口 |④--⑤|
⑥口口口 |--⑥-|
39
⑤④①口 |①-②-|
口口②口 |③---|
口口③口 |④--⑤|
口口⑥口 |--⑥-|
40
口口④⑤ |①-②-|
口③口口 |③---|
口②口口 |④--⑤|
口①口⑥ |--⑥-|
41
口口④⑤ |①-②-|
口③口口 |③---|
口②口口 |④--⑤|
口①口⑥ |--⑥-|
42
口口口口 |①---|
①②口口 |②---|
口⑤③④ |③---|
口口口口 |④-⑤-|
43
口口口口 |--①-|
口②②口 |--②-|
口口口口 |----|
口口①口 |----|
44
口口口② |①---|
口口口② |----|
①①口口 |②---|
口口口口 |----|
45
②口口口 |①---|
②口口口 |----|
口口①① |②---|
口③③口 |③---|
46
口②②口 |①---|
口③③口 |--②-|
口①①口 |----|
口口口口 |③---|
47
口③口口 |----|
口口②口 |----|
口①口口 |①-②-|
口口口口 |③---|
48
①③③① |①---|
口口口口 |--②-|
②口口② |----|
口口口口 |③---|
49
①口口① |①---|
②口口② |②---|
③口口③ |③---|
④口口④ |④---|
50
口口口口 |①---|
口①①口 |----|
口②②口 |②---|
口口口口 |----|
51
口口口口 |①---|
口口口口 |----|
口口口口 |----|
口①①口 |----|
52
口口口口 |①---|
口①①口 |----|
口①①口 |----|
口口口口 |----|
53
口口口口 |----|
口口口口 |----|
口口口口 |----|
口口口口 |----|
54
③①①③ |①---|
④②②④ |②---|
口口口口 |③---|
口口口口 |④---|
55
口口口口 |①---|
口口口口 |②---|
③①①③ |③---|
④②②④ |④---|
56
③①①③ |①---|
④②②④ |②---|
口口口口 |③---|
口口口口 |④---|
57
口口口口 |①---|
口口口口 |②---|
③①①③ |③---|
④②②④ |④---|
58
④③①② |①---|
④③①② |②---|
口口口口 |③---|
口口口口 |④---|
59
口口口口 |①---|
口口口口 |②---|
④③①② |③---|
④③①② |④---|
60
④③①② |①---|
④③①② |②---|
口口口口 |③---|
口口口口 |④---|
61
口口口口 |①---|
口口口口 |②---|
④③①② |③---|
④③①② |④---|
62
口口口口 |①---|
②①①② |----|
口口口口 |----|
口口口口 |②---|
63
③口口⑥ |①--②|
口②⑤口 |--③-|
④口口① |④--⑤|
口口口口 |--⑥-|
64
口口口口 |①--②|
③口口⑥ |--③-|
口②⑤口 |④--⑤|
④口口① |--⑥-|
65
③口口⑥ |①--②|
口②⑤口 |--③-|
④口口① |④--⑤|
口口口口 |--⑥-|
66
口口口口 |①---|
①口口① |②---|
口②②口 |③---|
③口口③ |----|
67
③口口⑥ |①--②|
口②⑤口 |--③-|
④口口① |④--⑤|
口口口口 |--⑥-|
68
口口口口 |①--②|
③口口⑥ |--③-|
口②⑤口 |④--⑤|
④口口① |--⑥-|
69
口口口口 |①--②|
口④①口 |--③-|
口②⑤口 |④--⑤|
口⑥③口 |--⑥-|
70
②口口① |①-②-|
④口口③ |③-④-|
⑥口口⑤ |⑤-⑥-|
⑧口口⑦ |⑦-⑧-|
71
口②①口 |①-②-|
口④③口 |③-④-|
口⑥⑤口 |⑤-⑥-|
口⑧⑦口 |⑦-⑧-|
72
③口口③ |①---|
②口口② |--②-|
①口口① |----|
口口口口 |③---|
73
口口①口 |①-②-|
⑤②口⑤ |③-④-|
⑥口③⑥ |⑤---|
口④口口 |⑥---|
74
②口口② |①---|
③口口③ |--②-|
口口口口 |----|
①口口① |③---|
75
口口①口 |①-②-|
口②口口 |③-④-|
⑤口③⑤ |⑤---|
⑥④口⑥ |⑥---|
76
①口口① |①---|
③口口③ |--②-|
②口口② |----|
口口口口 |③---|
77
口⑧①口 |①-②-|
口②⑦口 |③-④-|
口⑥③口 |⑤-⑥-|
口④⑤口 |⑦-⑧-|
78
①口③① |①---|
②④口② |--②-|
口口⑤口 |--③-|
口口口口 |④-⑤-|
79
口口口口 |①---|
口③③口 |--②-|
口口口口 |----|
②①①② |③---|


不確定度: 0

最終更新:2013年11月11日 13:27