Triple Journey -S-C-U EDITION-
Triumvirate

BASIC

Level: 4
BPM: 200
Notes: 304

1
口口口口 |----|
口口口口 |----|
口口口口 |----|
口口口口 |----|
2
口口口口 |----|
口口口口 |----|
口口口口 |----|
口口口口 |----|
3
口口口口 |①---|
口①①口 |----|
口②②口 |--②-|
口口口口 |----|
4
口口口口 |----|
口口口口 |----|
口口口口 |----|
口口口口 |----|
5
口口口口 |①---|
口①①口 |----|
口②②口 |--②-|
口口口口 |----|
6
口口口口 |----|
口口口口 |----|
口口口口 |----|
口口口口 |----|
7
口口口口 |①---|
口①①口 |----|
口②②口 |--②-|
口口口口 |----|
8
口口口口 |----|
口口口口 |----|
口口口口 |----|
口口口口 |----|
9
③口口③ |①---|
口口口口 |----|
②口口② |②---|
①口口① |--③-|
10
口口口口 |----|
口①①口 |----|
口①①口 |--①-|
口口口口 |----|
11
①口口① |①---|
口口口口 |----|
口口口口 |----|
口口口口 |----|
12
口口口口 |----|
口口口口 |----|
口口口口 |----|
口口口口 |----|
13
口口口口 |①---|
口口口口 |----|
口口口口 |----|
①口口① |----|
14
①口口口 |----|
①口口口 |----|
口口口口 |----|
口口口口 |--①-|
15
口口口① |----|
口口口① |----|
口口口口 |----|
口口口口 |--①-|
16
口②②口 |----|
口口口口 |--①-|
口口口口 |----|
口①①口 |--②-|
17
口③③口 |----|
口②②口 |--①-|
口①①口 |--②-|
口口口口 |--③-|
18
口口口口 |----|
口口口口 |----|
口口口口 |----|
口口口口 |----|
19
①口口② |①---|
口③③口 |--②-|
口口口口 |----|
口口口口 |--③-|
20
口口口口 |--①-|
口口口口 |----|
口①①口 |----|
口口口口 |----|
21
口口口口 |①---|
口口口口 |--②-|
口③③口 |----|
①口口② |--③-|
22
口口口口 |--①-|
口①①口 |----|
口口口口 |----|
口口口口 |----|
23
口口口口 |①---|
③口口③ |--②-|
②口口② |----|
①口口① |③---|
24
①口口① |--①-|
口②②口 |----|
口③③口 |②---|
口口口口 |③---|
25
②②②② |①---|
口口口口 |----|
口口口口 |----|
口①①口 |--②-|
26
口口口口 |----|
口口口口 |--①-|
①①①① |----|
口口口口 |----|
27
口口口口 |①---|
①②③④ |②---|
口口口口 |③---|
口口口口 |④---|
28
口口口口 |①---|
口口口口 |②---|
④③②① |③---|
口口口口 |④---|
29
①口口③ |①---|
口②口④ |--②-|
口口口口 |----|
口口口口 |③-④-|
30
口口口口 |--①-|
口口口口 |----|
口①①口 |----|
口口口口 |----|
31
口口口口 |①---|
①口口② |--②-|
③口口口 |----|
口口口口 |③---|
32
口口口口 |--①-|
口③③口 |----|
口②②① |②---|
口口口口 |③---|
33
口①①口 |①---|
②口口③ |----|
口口口口 |--②-|
口口口口 |--③-|
34
口①①口 |----|
口口口口 |--①-|
口口口口 |----|
口口口口 |----|
35
②口口② |①---|
①口口① |----|
口口口口 |--②-|
口口口口 |----|
36
口口口口 |--①-|
口②②口 |----|
①口口① |②---|
口口口口 |----|
37
①口口① |①---|
口口口口 |----|
②口口② |--②-|
口口口口 |----|
38
口口口口 |--①-|
口②②口 |----|
口口口口 |--②-|
口①①口 |----|
39
①口口① |①---|
②口口② |②---|
口口口口 |--③-|
口③③口 |----|
40
口口口口 |----|
口①②③ |①---|
口口口口 |②---|
口口口口 |③---|
41
口①①口 |①---|
口③③口 |--②-|
口②②口 |----|
口口口口 |③---|
42
③②②③ |--①-|
③口口③ |----|
口口口口 |②---|
口①①口 |③---|
43
口口口口 |①---|
口②②口 |----|
口口口口 |--②-|
口①①口 |----|
44
口①①口 |--①-|
口口口口 |----|
口②②口 |②---|
口口口口 |----|
45
③①①③ |①---|
口口口口 |----|
口口口口 |--②-|
口②②口 |--③-|
46
口①①口 |----|
口口口口 |--①-|
②口口② |----|
口口口口 |②---|
47
①口口① |①---|
②口口② |--②-|
③口口③ |----|
口口口口 |③---|
48
②③③② |--①-|
口③③口 |----|
口口口口 |②---|
①口口① |③---|
49
口口口口 |①---|
③③③③ |--②-|
②②②② |----|
①①①① |--③-|
50
①①②② |--①-|
口口口口 |②---|
口口口口 |----|
口口口口 |----|
51
口口口口 |①---|
①口口口 |----|
①口口口 |----|
口口口口 |----|
52
口口口口 |①---|
口口口① |----|
口口口① |----|
口口口口 |----|
53
①口口口 |①---|
①口口口 |----|
①口口口 |----|
口口口口 |----|
54
口口口① |①---|
口口口① |----|
口口口① |----|
口口口口 |----|
55
①①①① |①---|
口口口口 |----|
口口口口 |----|
口口口口 |----|
56
口口口口 |①---|
口口口口 |----|
口口口口 |----|
①①①① |----|
57
口口口口 |①---|
①②③④ |②---|
①②③④ |③---|
口口口口 |④---|
58
口①①口 |①---|
口②②口 |----|
口口口口 |②---|
口口口口 |----|
59
口口口口 |①---|
口口口口 |----|
口①①口 |----|
①口口① |----|
60
①口口① |①---|
口口口口 |----|
口口口口 |----|
口口口口 |----|
61
口口口口 |①---|
口口口口 |----|
口口口口 |----|
①①①① |----|
62
口①①口 |①---|
口口口口 |----|
口口口口 |----|
口口口口 |----|
63
口口口口 |①---|
①①①① |----|
口口口口 |----|
口口口口 |----|
64
口口口口 |----|
口口口口 |----|
口口口口 |----|
口口口口 |----|
65
口口口口 |①---|
②②②② |----|
口口口口 |②---|
①①①① |----|
66
②②②② |①---|
口口口口 |----|
①①①① |②---|
口口口口 |----|
67
口口口口 |①---|
①②③④ |②---|
口口口口 |③---|
口口口口 |④---|
68
口口口口 |①---|
口口口口 |②---|
④③②① |③---|
口口口口 |④---|
69
口口口口 |①---|
①②③④ |②---|
口口口口 |③---|
口口口口 |④---|
70
口口口口 |①---|
口口口口 |②---|
④③②① |③---|
口口口口 |④---|
71
口口①① |①---|
口口口口 |----|
口口口口 |----|
口口口口 |----|
72
口口口口 |----|
口口口口 |----|
口口口口 |----|
口口口口 |----|
73
①①口口 |①---|
口口口口 |----|
口口口口 |----|
口口口口 |----|
74
口口口口 |----|
①①①① |----|
口口口口 |----|
口口口口 |--①-|
75
口口口口 |----|
口口口口 |----|
①①①① |--①-|
口口口口 |----|
76
①①①① |--①-|
口口口口 |----|
口口口口 |--②-|
②②②② |----|
77
②②②② |----|
口口口口 |--①-|
①①①① |----|
口口口口 |--②-|
78
口口口口 |----|
口口口口 |----|
口口口口 |----|
口口口口 |----|
79
①①①口 |①---|
口②口③ |--②-|
口②口③ |----|
口口口口 |③---|
80
口口口口 |--①-|
口口口口 |----|
口口口口 |②---|
口口②① |----|


不確定度: 0

最終更新:2013年11月11日 22:47