凛として咲く花の如く ~ひなビタ♪ edition~
日向美ビタースイーツ♪

ADVANCED

Level: 7
BPM: 163
Notes: 558

1
口口口口 |----|
口口口口 |----|
口口口口 |----|
口口口口 |----|
2
口①②口 |①-②-|
③口口④ |③-④-|
口⑤⑥口 |⑤-⑥-|
⑦口口⑧ |⑦-⑧-|
3
⑦口口⑦ |①-②-|
⑥口口⑥ |③-④-|
⑤③④⑤ |⑤-⑥-|
口①②口 |⑦---|
4
口口口口 |----|
口口口口 |----|
口口口口 |----|
口口口口 |----|
5
口口⑤① |①-②-|
②⑥口口 |③-④-|
口口⑦③ |⑤-⑥-|
④⑧口口 |⑦-⑧-|
6
②口口① |①-②-|
④口⑤③ |③-④-|
口⑥口口 |⑤-⑥-|
口口⑦口 |⑦---|
7
口口⑤① |①-②-|
②⑥口口 |③-④-|
口口⑦③ |⑤-⑥-|
④⑧口口 |⑦-⑧-|
8
③口口① |①-②-|
④口口② |③-④-|
口⑦⑥⑤ |⑤-⑥-|
口口口口 |⑦---|
9
口口⑤① |①-②-|
②⑥口口 |③-④-|
口口⑦③ |⑤-⑥-|
④⑧口口 |⑦-⑧-|
10
口②口① |①-②-|
③⑤④口 |③-④-|
口口⑥口 |⑤-⑥-|
口⑦口口 |⑦---|
11
口口⑤① |①-②-|
②⑥口口 |③-④-|
口口⑦③ |⑤-⑥-|
④⑧口口 |⑦-⑧-|
12
口②口① |①-②-|
③口④口 |③-④-|
口⑤口口 |⑤---|
口口⑦⑥ |⑥-⑦-|
13
口口口口 |①---|
口⑤口⑥ |②-③-|
②③④口 |④---|
口①口口 |⑤-⑥-|
14
④⑤口口 |①---|
口口①口 |②---|
口②口口 |③---|
口口③口 |④-⑤-|
15
口口①口 |①---|
口口③口 |--②-|
④②口④ |③---|
口口口口 |④---|
16
口口口口 |①---|
①口口① |----|
口口口口 |----|
口口③② |②-③-|
17
口口口口 |①---|
口⑥⑦口 |②-③-|
②③④⑤ |④-⑤-|
口①口口 |⑥-⑦-|
18
②口口② |①---|
①口口① |②---|
口③③口 |③---|
口口口口 |----|
19
口①口口 |①---|
④口③④ |②-③-|
⑤口口⑤ |④---|
口②口口 |⑤---|
20
口口口口 |①---|
口口口口 |----|
口口口口 |----|
①口口① |----|
21
口③口口 |①---|
②口口③ |②---|
①口②口 |③---|
口口①口 |----|
22
口口③口 |①---|
③口口② |②---|
口②口① |③---|
口①口口 |----|
23
①口口③ |①---|
口④⑤口 |②---|
口②②口 |③---|
③口口① |④-⑤-|
24
③口口③ |①---|
口口口口 |②---|
口①口口 |③---|
②口①② |----|
25
②①口口 |①---|
③口口口 |②---|
口口口③ |③---|
口口①② |----|
26
口口③② |①---|
口口口① |②---|
①口口口 |③---|
②③口口 |----|
27
口①口口 |①---|
⑤②③口 |②---|
④③②⑤ |③---|
口口①④ |④-⑤-|
28
①口口口 |①---|
口②③① |----|
口③②口 |②---|
口口口口 |③---|
29
①口口① |①---|
口口口口 |②-③-|
口口③口
口②口口

⑤④④⑥
口口口口
口口口口 |④---|
口口口口 |⑤-⑥-|
30
⑥⑦口口 |①-②-|
①口口② |③-④-|
口③④口 |⑤---|
口⑤⑤口 |⑥-⑦-|
31
口口①口 |①---|
④⑥⑦⑤ |②-③-|
口②③口 |④-⑤-|
口口口口 |⑥-⑦-|
32
口口口口 |①---|
④⑥口④ |②-③-|
②⑤口③ |④---|
口①①口 |⑤-⑥-|
33
口①④口 |①---|
⑤口③⑥ |②-③-|
口口②口 |④---|
口口口口 |⑤-⑥-|
34
⑤⑥④⑤ |①-②-|
口③⑦口 |③-④-|
口口②口 |⑤---|
口①口口 |⑥-⑦-|
35
口口口口 |①---|
口口口口 |②-③-|
口①①口
②口口③

口口口口
④口口④
口口⑥口 |④---|
口⑤口口 |⑤-⑥-|
36
口口口口 |①---|
口①①口 |----|
口口口口 |----|
口口口口 |----|
37
口①①口 |①---|
口口口口 |----|
③口口③ |----|
②口口② |②-③-|
38
口口口口 |①---|
①口③① |②---|
口②④口 |③---|
口口口口 |④---|
39
口口口口 |①---|
口②③口 |②---|
口①④口 |③---|
口口口口 |④---|
40
口口口口 |①---|
口①③口 |②---|
口②④口 |③---|
口口口口 |④---|
41
口口口口 |①---|
口①口口 |②---|
口②口口 |③---|
口③口口 |----|
42
口口口口 |①---|
④②②④ |②---|
口①①口 |③---|
③口口③ |④---|
43
③⑤⑤③ |①---|
④①②④ |②---|
口②①口 |③-④-|
口口口口 |⑤---|
44
口口口口 |----|
口口口口 |----|
口口口口 |----|
口口口口 |----|
45
口口⑤① |①-②-|
②⑥口口 |③-④-|
口口⑦③ |⑤-⑥-|
④⑧口口 |⑦-⑧-|
46
②口口① |①-②-|
④口⑤③ |③-④-|
口⑥口口 |⑤-⑥-|
口口⑦口 |⑦---|
47
口口⑤① |①-②-|
②⑥口口 |③-④-|
口口⑦③ |⑤-⑥-|
④⑧口口 |⑦-⑧-|
48
③口口① |①-②-|
④口口② |③-④-|
口⑤⑤口 |⑤---|
口口口口 |----|
49
口口⑤① |①-②-|
②⑥口口 |③-④-|
口口⑦③ |⑤-⑥-|
④⑧口口 |⑦-⑧-|
50
口②口① |①-②-|
③⑤④口 |③-④-|
口口⑥口 |⑤-⑥-|
口⑦口口 |⑦---|
51
口口⑤① |①-②-|
②⑥口口 |③-④-|
口口⑦③ |⑤-⑥-|
④⑧口口 |⑦-⑧-|
52
口②口① |①-②-|
③口④口 |③-④-|
口⑤口口 |⑤---|
口口口口 |----|
53
口口口口 |①---|
口口口口 |----|
口口口口 |----|
①口口① |----|
54
口口口口 |①---|
口口口口 |----|
①口口① |----|
口口口口 |----|
55
口口口口 |①---|
口口口口 |----|
②口口② |②---|
①口口① |----|
56
口口口口 |①---|
口①口口 |----|
口口①口 |----|
口口口口 |----|
57
①口口口 |①---|
口②口口 |②---|
口口③口 |③---|
口口口④ |④---|
58
口口口① |①---|
口口②口 |②---|
口③口口 |③---|
④口口口 |④---|
59
①口口口 |①---|
口②口口 |②---|
口口③口 |③---|
口口口④ |④---|
60
口口口口 |①---|
③口口口 |②---|
口口口② |③---|
①口口口 |----|
61
口③口口 |①---|
②口口③ |②---|
①口②口 |③---|
口口①口 |----|
62
口口③口 |①---|
③口口② |②---|
口②口① |③---|
口①口口 |----|
63
①口口③ |①---|
口④⑤口 |②---|
口②②口 |③---|
③口口① |④-⑤-|
64
③口口③ |①---|
口口口口 |②---|
口①口口 |③---|
②口①② |----|
65
②①口口 |①---|
③口口口 |②---|
口口口③ |③---|
口口①② |----|
66
口口③② |①---|
口口口① |②---|
①口口口 |③---|
②③口口 |----|
67
口①口口 |①---|
⑤②③口 |②---|
④③②⑤ |③---|
口口①④ |④-⑤-|
68
①口口口 |①---|
口②③① |----|
口③②口 |②---|
口口口口 |③---|
69
①口口① |①---|
口口口口 |②-③-|
口口③口
口②口口

⑤④④⑥
口口口口
口口口口 |④---|
口口口口 |⑤-⑥-|
70
⑥⑦口口 |①-②-|
①口口② |③-④-|
口③④口 |⑤---|
口⑤⑤口 |⑥-⑦-|
71
口口①口 |①---|
④⑥⑦⑤ |②-③-|
口②③口 |④-⑤-|
口口口口 |⑥-⑦-|
72
口口口口 |①---|
④⑥口④ |②-③-|
②⑤口③ |④---|
口①①口 |⑤-⑥-|
73
口①④口 |①---|
⑤口③⑥ |②-③-|
口口②口 |④---|
口口口口 |⑤-⑥-|
74
⑤⑥④⑤ |①-②-|
口③⑦口 |③-④-|
口口②口 |⑤---|
口①口口 |⑥-⑦-|
75
口口口口 |①---|
口口口口 |②-③-|
口①①口
②口口③

口口口口
④口口④
口口⑥口 |④---|
口⑤口口 |⑤-⑥-|
76
口口口口 |①---|
口①①口 |----|
口②③口 |②---|
口③②口 |③---|
77
④①①④ |①---|
⑥⑤⑤⑥ |②-③-|
③口口③ |④---|
②口口② |⑤-⑥-|
78
④②②④ |①-②-|
⑥口口⑦ |③-④-|
③①①③ |⑤---|
口⑤⑤口 |⑥-⑦-|
79
⑦⑤⑤⑦ |①---|
⑥④④⑥ |②-③-|
口①①口 |④-⑤-|
②口口③ |⑥-⑦-|
80
口⑤⑤口 |①-②-|
⑦④④口 |③-④-|
⑥②②口 |⑤---|
③①①③ |⑥-⑦-|
81
①⑥⑥④ |①---|
口口口③ |②-③-|
口⑤⑤② |④---|
口口口口 |⑤-⑥-|
82
④口口④ |①-②-|
②口口② |③-④-|
①口口①
口③③口

口⑥口口
口⑤⑤⑦
口口口口 |⑤---|
口口口口 |⑥-⑦-|
83
口口口口 |①---|
口口口口 |②-③-|
口①①③
②①①口

口④④口
口④④口
口口⑥口 |④---|
口⑤口口 |⑤-⑥-|
84
①口口① |①---|
①口口① |----|
口口口口 |----|
口口口口 |----|
85
①①①① |①---|
口口口口 |----|
口③③口 |----|
口②②口 |②-③-|
86
口口口口 |①---|
口①①口 |----|
口口口口 |----|
口口口口 |----|


不確定度: 0

最終更新:2013年12月15日 00:51