Gimme a Big Beat
kors k

EXTREME

Level: 10
BPM: 138
Notes: 933

1
口口口口 |----|
口口口口 |----|
口口口口 |----|
口口口口 |----|
2
口口口① |----|
口口口口 |----|
口口口口 |----|
口口口口 |--①-|
3
⑤③④口 |①---|
①口①口 |--②-|
④口⑤③ |③--④|
②①②① |--⑤-|
4
口口口② |--①-|
口口口口 |②---|
口口口口
①口①口

④口④口
口口口⑤
⑥⑤③③ |③-④-|
口口⑥口 |⑤-⑥-|
5
口②口② |①---|
①⑤①口 |--②-|
③④④⑤ |③--④|
口①③① |--⑤-|
6
④口④口 |----|
口③口③ |----|
口②口② |①-②-|
①口①口 |③-④-|
7
⑤③④口 |①---|
①口①口 |--②-|
④口⑤③ |③--④|
②①②① |--⑤-|
8
口③口③ |--①②|
口口口口 |③---|
口口口口
口②①口

⑤口⑤口
口口口⑥
⑦⑥④④ |④-⑤-|
口口⑦口 |⑥-⑦-|
9
口②口② |①---|
①④①口 |--②-|
③⑤⑤④ |③--④|
口①③① |--⑤-|
10
①⑥⑥② |--①②|
③⑦⑦④ |③④⑤-|
⑤⑧口⑧ |⑥-⑦-|
⑨口⑨口 |⑧-⑨-|
11
④②⑤⑦ |①-②-|
③③⑥⑥ |③-④-|
②④⑦⑤ |--⑤-|
口①口① |⑥-⑦-|
12
口口口口 |--①-|
①③⑥④ |②-③-|
②②⑤⑤ |--④-|
③①④⑥ |⑤-⑥-|
13
③①④⑥ |--①-|
②②⑤⑤ |②-③-|
①③⑥④ |--④-|
口口口口 |⑤-⑥-|
14
口口口口 |--①-|
①③⑥④ |②-③-|
②②⑤⑤ |--④-|
③①④⑥ |⑤-⑥-|
15
②①⑤⑥ |①-②-|
④③⑦⑧ |③-④-|
①②⑥⑤ |⑤-⑥-|
③④⑧⑦ |⑦-⑧-|
16
②①⑤⑥ |①-②-|
④③⑦⑧ |③-④-|
①②⑥⑤ |⑤-⑥-|
③④⑧⑦ |⑦-⑧-|
17
①④⑨⑫ |①②③④|
⑤⑧⑬⑯ |⑤⑥⑦⑧|
③②⑪⑩ |⑨⑩⑪⑫|
⑦⑥⑮⑭ |⑬⑭⑮⑯|
18
①口①口 |--①-|
口口口口 |②-③-|
②口②③
③口口口

口⑤⑦口
④⑥④⑥
口④口口 |④-⑤-|
口⑥④⑥ |⑥-⑦-|
19
①⑧⑧② |①-②③|
④⑨⑤⑩ |④⑤⑥-|
⑦口③① |⑦-⑧-|
⑨⑥⑩⑦ |⑨-⑩-|
20
①⑤⑧口 |①-②③|
④⑨②⑩ |④⑤⑥-|
⑦⑧⑥① |⑦-⑧-|
⑨⑦⑩③ |⑨-⑩-|
21
①⑧⑧② |①-②③|
④⑩⑤⑩ |④⑤⑥-|
⑦口③① |⑦-⑧-|
⑨⑥⑨⑦ |⑨-⑩-|
22
①⑤口口 |①-②③|
④口②口 |④⑤⑥-|
口口⑥①
口口口③

口口⑧⑧
口⑨⑨口
⑦口口⑩ |⑦-⑧-|
⑨⑦⑦⑩ |⑨-⑩-|
23
①口⑤口 |①-②③|
④口口② |④⑤⑥-|
口⑥①口
口口③口

口⑧口⑧
口口口⑨
⑦口⑩口 |⑦-⑧-|
⑨⑩口⑦ |⑨-⑩-|
24
①口⑤口 |①-②③|
④②①口 |④⑤⑥-|
口口口⑥
口口③口

口⑧口⑧
口口⑨口
⑦口⑩口 |⑦-⑧-|
⑨⑩口⑦ |⑨-⑩-|
25
①口②口 |①-②③|
④口口⑤ |④⑤⑥-|
口③口①
口口⑥口

口⑧口⑧
口⑩⑨口
⑦口口⑩ |⑦-⑧-|
⑨口口⑦ |⑨-⑩-|
26
口口口口 |①---|
①口口① |----|
口①①口
口①①口

口③口②
口④口④
口口口口 |②--③|
④③④② |--④-|
27
①⑧⑧② |①-②③|
④⑨⑤⑩ |④⑤⑥-|
⑦口③① |⑦-⑧-|
⑨⑥⑩⑦ |⑨-⑩-|
28
①⑤⑧口 |①-②③|
④⑨②⑩ |④⑤⑥-|
⑦⑧⑥① |⑦-⑧-|
⑨⑦⑩③ |⑨-⑩-|
29
①⑧⑧② |①-②③|
④⑩⑤⑩ |④⑤⑥-|
⑦口③① |⑦-⑧-|
⑨⑥⑨⑦ |⑨-⑩-|
30
①③口口 |①--②|
口口①口 |--③-|
口②③②
口口口口

口口⑤⑤
口⑥⑥口
④口口⑦ |④-⑤-|
⑥④④⑦ |⑥-⑦-|
31
①口⑤口 |①-②③|
④口口② |④⑤⑥-|
口⑥①口
口口③口

口⑧口⑧
口⑩口⑨
⑦口口口 |⑦-⑧-|
⑨⑩口⑦ |⑨-⑩-|
32
①口口④ |①-②③|
③口②⑤ |④-⑤⑥|
⑥③④①
⑥口⑤②

⑩⑧⑦口
口⑫⑪口
口口口⑨ |⑦⑧⑨⑩|
口⑭口⑬ |⑪⑫⑬⑭|
33
③③③② |①--②|
①口口② |--③-|
口①口口
口口口口

口口口⑥
口④口⑥
口口④⑥ |-④--|
⑤⑤⑤④ |⑤-⑥-|
34
①⑦②⑧ |--①②|
⑦③④⑧ |③④⑤-|
口⑤⑨口 |⑥-⑦-|
口⑨⑥⑥ |⑧-⑨-|
35
⑦口②口 |①-②-|
⑤⑥③⑤ |③-④-|
③口口④ |⑤-⑥-|
①⑧口⑦ |⑦-⑧-|
36
⑦口④口 |①-②-|
⑤⑦③⑤ |③-④-|
③口②口 |⑤-⑥-|
①⑧①⑥ |⑦-⑧-|
37
⑦②⑤① |①-②-|
⑤口口⑥ |③-④-|
③④⑦③ |⑤-⑥-|
①口口⑧ |⑦-⑧-|
38
⑦口⑤④ |①-②-|
⑤③⑥口 |③-④-|
③口⑦② |⑤-⑥-|
①①⑧口 |⑦-⑧-|
39
⑨④⑤口 |①-②-|
⑥口口③ |③-④⑤|
③②⑧⑦ |⑥-⑦⑧|
①⑩⑪① |⑨-⑩⑪|
40
⑨口⑤④ |①-②-|
⑥口口② |③-④⑤|
③⑦⑪⑩ |⑥⑦-⑧|
①口口⑧ |⑨⑩⑪-|
41
⑨口口⑧ |①-②-|
⑥②⑦口 |③-④⑤|
③⑩⑪口 |⑥⑦-⑧|
①口⑤④ |⑨⑩⑪-|
42
口口口口 |①-②-|
口口口① |③-④⑤|
③口口口
①②⑤④

⑨口口口
⑥⑦⑪⑩
口⑧⑫口 |⑥⑦-⑧|
口口口口 |⑨⑩⑪⑫|
43
⑥①③① |①---|
④④⑦⑦ |②-③-|
②口口③ |④--⑤|
①⑤④⑤ |⑥-⑦-|
44
⑧口口口 |①---|
⑤⑥⑩⑨ |②-③④|
②⑦口口 |⑤⑥-⑦|
①口④③ |⑧⑨⑩-|
45
口①③① |①---|
口口口口 |②-③-|
②口口③
①口口口

⑥⑦口⑦
④④口口
口口口口 |④--⑤|
口⑤④⑤ |⑥-⑦-|
46
⑧口口口 |①---|
⑤⑥⑩⑨ |②-③④|
②口⑪口 |⑤⑥-⑦|
①⑦④③ |⑧⑨⑩⑪|
47
⑥①③① |①---|
④④⑦⑦ |②-③-|
②口口③ |④--⑤|
①⑤④⑤ |⑥-⑦-|
48
⑧口口口 |①---|
⑤⑥⑩⑨ |②-③④|
②⑦口口 |⑤⑥-⑦|
①口④③ |⑧⑨⑩-|
49
口①③① |①---|
口口口口 |②-③-|
②口口③
①口口口

⑥⑦口⑦
④④口口
口口口口 |④--⑤|
口⑤④⑤ |⑥-⑦-|
50
⑦口口⑤ |①---|
⑤⑥④③ |②-③④|
②口口⑦ |⑤-⑥-|
①⑧口口 |⑦-⑧-|
51
口⑤③② |①-②-|
⑥⑦④口 |③-④-|
④⑧口口 |⑤-⑥-|
①口①⑧ |⑦-⑧-|
52
口口口口 |①-②-|
口口①口 |③-④-|
④口③②
口口④口

口⑤口口
⑥⑦口口
口⑧口⑧ |⑤-⑥-|
口口口口 |⑦-⑧-|
53
②口①口 |①-②-|
④口③② |③-④-|
口口④口
③口口口

口口口⑥
口口⑧口
⑥⑦口⑤ |⑤-⑥-|
口⑧⑦口 |⑦-⑧-|
54
②口②口 |①-②-|
口口口② |③-④-|
③口③④
④口口①

口口口口
⑤⑥⑤⑥
口⑤口口 |⑤---|
口⑥⑤⑥ |⑥---|
55
①①③① |①---|
②④⑦⑦ |②-③-|
④口口③ |④--⑤|
⑥⑤④⑤ |⑥-⑦-|
56
①②⑤② |①-②-|
③口⑪口 |③④-⑤|
⑥口⑧⑦ |⑥⑦⑧-|
⑨⑨④⑩ |⑨⑩-⑪|
57
①①③① |①---|
②口口口 |②-③-|
口口口③
口口口口

口⑦口⑦
口④口口
④口口口 |④--⑤|
⑥⑤④⑤ |⑥-⑦-|
58
①口②口 |①-②-|
③口②口 |③④⑤⑥|
口口④③
口口⑥⑤

口口口口
口⑨⑩⑧
⑦⑪⑫口 |⑦-⑧-|
⑨口口口 |⑨⑩⑪⑫|
59
①①③① |①---|
②④⑦⑦ |②-③-|
④口口③ |④--⑤|
⑥⑤④⑤ |⑥-⑦-|
60
①②⑤② |①-②-|
③口⑪口 |③④-⑤|
⑥口⑧⑦ |⑥⑦⑧-|
⑨⑨④⑩ |⑨⑩-⑪|
61
①①③① |①---|
②口口口 |②-③-|
口口口③
口口口口

口⑦口⑦
口④口口
④口口口 |④--⑤|
⑥⑤④⑤ |⑥-⑦-|
62
①口②口 |①-②-|
③口②口 |③④⑤⑥|
口口④③
口口⑥⑤

口口口口
口⑨⑩⑧
⑦⑪⑫口 |⑦-⑧-|
⑨口口口 |⑨⑩⑪⑫|
63
①①②① |①---|
口口口口 |②-③-|
口口口③
口口②③

口口⑦口
口④④⑦
④口⑤口 |④--⑤|
⑥⑤口口 |⑥-⑦-|
64
①②口② |①-②-|
③⑫⑬⑭ |③④⑤⑥|
⑦⑩⑨⑧ |⑦⑧⑨⑩|
⑪④⑤⑥ |⑪⑫⑬⑭|
65
①①③① |①---|
②口口口 |②-③-|
口口口③
口口口口

口⑦口⑦
口④口口
④口口口 |④--⑤|
⑥⑤④⑤ |⑥-⑦-|
66
①口口口 |①-②-|
③口③② |③④⑤⑥|
口④②⑤
口口⑥口

口口⑧口
口⑧⑫⑪
⑦口⑬口 |⑦⑧-⑨|
⑩⑨口⑨ |⑩⑪⑫⑬|
67
①①②① |①---|
口④⑦⑦ |②-③-|
④④⑤③ |④--⑤|
⑥⑤②③ |⑥-⑦-|
68
①②口② |①-②-|
③⑨⑪⑨ |③④⑤⑥|
⑦⑧⑫⑧ |⑦⑧-⑨|
⑩④⑤⑥ |⑩⑪⑫-|
69
①①③① |①---|
②口口口 |②-③-|
口口口③
口口口口

口⑦口⑦
口④口口
④口口口 |④--⑤|
⑥⑤④⑤ |⑥-⑦-|
70
⑤口⑥口 |①-②-③-④--⑤--|
①⑨②口 |⑥⑦⑧⑨|
口③口④
口⑦口⑧

口口口口
⑬口⑮⑩
⑪⑭⑫⑯ |⑩⑪⑫⑬|
口口口口 |⑭⑮⑯-|
71
①口①口 |①---|
口口口口 |----|
口口口口 |----|
口①口① |----|


不確定度: 0

最終更新:2014年01月08日 16:52