少年は空を辿る
Power Of Nature

BASIC

Level: 7
BPM: 140
Notes: 552

1
口口口口 |----|
口口口口 |----|
口口口口 |----|
口口口口 |----|
2
口口口口 |①-②-|
②③⑦⑥ |③-④-|
①④⑧⑤ |⑤-⑥-|
口口口口 |⑦-⑧-|
3
口口口口 |①-②-|
②③⑦⑥ |③-④-|
①④⑧⑤ |⑤-⑥-|
口口口口 |⑦-⑧-|
4
④④②② |-①--|
口口口口 |②---|
口①③口 |-③--|
口口口口 |④---|
5
口口口口 |-①--|
口①③口 |②---|
口口口口 |-③--|
④④②② |④---|
6
②口口② |-①--|
口③③口 |②---|
口①①口 |-③--|
④口口④ |④---|
7
③④②① |①②--|
口⑥⑥口 |--③④|
口⑤⑤口 |---⑤|
口口口口 |⑥---|
8
口口口口 |-①②-|
口⑤⑤口 |-③④-|
口⑥⑥口 |---⑤|
③④②① |⑥---|
9
口口口口 |①-②-|
⑥口⑦③ |-③-④|
②口口⑤ |-⑤--|
④口口① |⑥⑦|
10
口①口口 |①-②-|
⑦口⑥④ |-③-④|
口③口口 |-⑤--|
口⑤②口 |⑥⑦|
11
口口口① |①---|
口口口③ |②---|
⑥口④口 |③-④-|
口⑤口② |⑤-⑥-|
12
②口口口 |①-②-|
口①口口
口口口口
口口口口
13
口口⑧口 |①-②-|
④口②⑦ |③-④-|
口③⑥① |⑤-⑥-|
口口口⑤ |⑦-⑧-|
14
口口⑧口 |①-②-|
①⑦口口 |③-④-|
口②⑥④ |⑤-⑥-|
口⑤③口 |⑦-⑧-|
15
口①口② |①---|
①③口③ |②---|
口口口④ |③---|
口口口口 |④---|
16
口口口② |①---|
④口口③ |②---|
口口口④ |③---|
①③口① |④---|
17
口口口② |①---|
口口口③ |②---|
口口口④ |③---|
⑤口口① |④-⑤-|
18
⑦口⑤口 |①-②-|
②口①口 |③-④-|
④口⑥口 |⑤-⑥-|
口口③口 |⑦-|
19
口口口① |①---|
口③口② |②---|
口口口③ |③---|
口口口④ |④---|
20
口口口① |①---|
④口口② |②---|
口口口③ |③---|
③①口④ |④---|
21
口口口① |①---|
口口口② |②---|
口口口③ |③---|
口⑤口④ |④-⑤-|
22
口口口口 |①-②-|
口④口③ |③-④-|
②口①口
口口口口

⑥口⑤口
口口口口
口口⑦口 |⑤-⑥-|
口口口口 |⑦-|
23
口①口口 |①-②-|
①③④② |-③-④|
⑤口口⑥ |-⑤--|
⑦⑧口口 |⑥-⑦⑧|
24
口口③口 |①-②-|
②口口口 |-③-④|
口④口口
口口①口

口口口口
口⑥口口
口口口⑤ |--⑤-|
口口⑦⑦ |⑥--⑦|
25
口口口口 |--①-|
口⑦口⑤ |②-③-|
③⑥口④ |④-⑤-|
②①口口 |⑥-⑦-|
26
③口②口 |①-②-|
④口①⑤ |③-④-|
口口口⑥ |⑤-⑥-|
口口口口
27
口口口口 |①-②-|
⑥①口⑧ |③-④-|
⑤②④⑦ |⑤-⑥-|
口口③口 |⑦-⑧-|
28
口②③口 |①-②-|
⑤①④口 |③-④-|
⑥口口口 |⑤-⑥-|
口口口口
29
④④口口 |①-②-|
口口③口 |③--④|
⑥口口② |--⑤-|
⑤口口① |⑥-|
30
口口口口 |①-②-|
①②口⑥ |③--④|
口口③⑤ |--⑤-|
口口④④ |⑥-|
31
口口④④ |①-②-|
口③口口 |③--④|
②口口⑥ |--⑤-|
①口口⑤ |⑥-|
32
口口口口 |①-②-|
口口②① |③--④|
口③口口
④④口口

口口口口
口口口⑦
口口口⑥ |--⑤-|
口口口⑤ |⑥-⑦-|
33
①②⑤④ |①-②-|
①②⑤④ |③---|
口口口口 |④-⑤-|
口⑥③口 |⑥---|
34
①①口口 |①-②-|
②②口口 |③---|
口口口口
口口③口
35
口口口① |①-②-|
口口口口 |③-④-|
②③⑦⑥ |⑤-⑥-|
①④⑧⑤ |⑦-⑧-|
36
②③⑦⑥ |①-②-|
①④⑧⑤ |③-④-|
口口口口 |⑤-⑥-|
口口口口 |⑦-⑧-|
37
口口口口 |①-②-|
②③⑦⑥ |③-④-|
①④⑧⑤ |⑤-⑥-|
口口口口 |⑦-⑧-|
38
口口口口 |①-②-|
③口④⑦ |③--④|
口②⑥口 |--⑤-|
①口口⑤ |⑥-⑦-|
39
①②③④ |--①-|
口⑧口口 |②-③-|
口⑦⑥口 |④----⑤-⑥|
口口⑤口 |-⑦⑧-|
40
口⑥⑤④ |--①-|
口口①口 |②--③|
口口口② |--④-|
口③口口 |⑤-⑥-|
41
①口口② |①---|
口口⑧③ |②-③-|
口⑥⑦④ |④---⑤--⑥|
口⑤口口 |-⑦⑧-|
42
①②口口 |①---|
口口口口 |②---|
③④口口 |③---|
口口口口 |④---|
43
口④口口 |①-②-|
口口口③ |③-④-|
口口口②
口口①口

口口口口
⑤⑨口口
口⑧⑦口 |⑤---⑥--⑦|
口口⑥口 |-⑧⑨-|
44
⑦⑥⑤④ |①-②-|
⑧口口③ |③-④-|
口口口② |⑤-⑥-|
口口口① |⑦-⑧-|
45
口口口口 |①-②-|
口口⑨⑤ |③-④-|
①⑦⑧④ |⑤---⑥--⑦|
②⑥口③ |-⑧⑨-|
46
口口口口 |①-②-|
⑥口⑦③ |-③-④|
②口口⑤ |-⑤--|
④口口① |⑥⑦|
47
口①口口 |①-②-|
⑦口⑥④ |-③-④|
口③口口 |-⑤--|
口⑤②口 |⑥⑦|
48
口口口① |①---|
口口口② |②---|
口口口③ |③---|
口口口④ |④---|
49
①口口① |①---|
口口口② |②---|
口口口③ |③---|
口口口④ |④---|
50
口口口① |①---|
口口口② |②---|
④口口③ |③---|
口口口④ |④---|
51
①口口① |①---|
口口口② |②---|
口口口③ |③---|
③口口④ |④---|
52
口口口① |①---|
口①口② |②---|
口④口③ |③---|
口口口④ |④---|
53
口口口① |①---|
口口口② |②---|
口③口③ |③---|
口①口④ |④---|
54
①口口④ |①---|
②口口口 |②---|
③口口口 |③---|
④口口口 |④---|
55
①口口口 |①---|
②口口口 |②---|
③口③① |③---|
④口口口 |④---|
56
①口口口 |①---|
②口口口 |②---|
③口④口 |③---|
④口①口 |④---|
57
①口③口 |①---|
②口①口 |②---|
③口口口 |③---|
④口口口 |④---|
58
④口口① |①---②-|
口④①口 |--③---|
口③⑥口 |④---⑤-|
口②⑤口 |--⑥---|
59
口④①口 |①---②-|
口口口口 |--③---|
④③⑥① |④---⑤-|
口②⑤口 |--⑥---|
60
口口口口 |①---②-|
口口口① |--③---|
口③口口
口②口①

口口口口
④口口口
口口口⑥ |④---⑤-|
④口口⑤ |--⑥---|
61
口①口口 |①---②-|
口口口口 |--③---|
③口①口
②口口口

口口④口
口口口口
口④⑥口 |④---⑤-|
口口⑤口 |--⑥---|
62
⑤口口① |①---②-|
④⑤①⑧ |③-④---|
③口口⑦ |⑤---⑥-|
②口口⑥ |⑦-⑧---|
63
口口口① |①---②-|
④口口口 |③-④---|
③口①口
②口口口

⑤口口口
口口⑧口
口⑤⑦口 |⑤---⑥-|
口口⑥口 |⑦-⑧---|
64
⑤口口① |①---②-|
口④⑧口 |③-④---|
⑤③⑦① |⑤---⑥-|
口②⑥口 |⑦-⑧---|
65
口⑧口口 |①-②-|
④⑦⑥口 |③-④-|
③口⑤② |⑤-⑥-|
口口口① |⑦-⑧-|
66
口口口① |①-②-|
③口⑤② |③-④-|
④⑦⑥口 |⑤-⑥-|
口⑧口口 |⑦-⑧-|
67
口⑧口口 |①-②-|
④⑦⑥口 |③-④-|
③口⑤② |⑤-⑥-|
口口口① |⑦-⑧-|
68
口口口① |①-②-|
③口⑤② |③-④-|
④⑦⑥口 |⑤-⑥-|
口⑧口口 |⑦-⑧-|
69
口④③口 |①-②-|
⑧⑦口口 |③-④-|
口⑥⑤口 |⑤-⑥-|
口口②① |⑦-⑧-|
70
①②口口 |①-②-|
口⑤⑥口 |③-④-|
口口⑦⑧ |⑤-⑥-|
口③④口 |⑦-⑧-|
71
口④③口 |①-②-|
⑧⑦口口 |③-④-|
口⑥⑤口 |⑤-⑥-|
口口②① |⑦-⑧-|
72
①②口口 |①-②-|
口⑤⑥口 |③-④-|
口口⑦⑧ |⑤-⑥-|
口③④口 |⑦-⑧-|
73
①口口④ |①---|
②口口口 |②---|
③口口口 |③---|
④口口口 |④---|
74
①口口口 |①---|
②口口口 |②---|
③口①口 |③---|
④口③口 |④---|
75
①口口口 |①---|
②口④口 |②---|
③口口① |③---|
④口口口 |④---|
76
①口口口 |①---|
②口③口 |②---|
③口①口 |③---|
④口口口 |④---|
77
①口口④ |①---|
②口口口 |②---|
③口口口 |③---|
④口口口 |④---|
78
①口口口 |①---|
②口口口 |②---|
③口③口 |③---|
④口口① |④---|
79
①口口口 |①---|
②口口口 |②---|
③口④① |③---|
④口口口 |④---|
80
①口口口 |①---|
②口口③ |②---|
③口口① |③---|
④口口口 |④---|

不確定度: 0

最終更新:2014年03月16日 15:33