カラルの月
猫叉劇団

ADVANCED

Level: 7
BPM: 135
Notes: 471

1
口口口口 |----|
口口口口 |----|
口口口口 |----|
口口口口 |----|
2
口口①口 |①---|
口②口① |----|
口口②口 |②---|
口口口口 |----|
3
口口口口 |①---|
口口口口 |----|
①口口口 |----|
口①口口 |----|
4
口①口口 |①-②-|
口口②口 |③---|
口口口③ |----|
口口口口 |----|
5
口口①口 |①-②-|
口②口口 |③---|
③口口口
口口口口

口口口口
口⑤口口
口口④口 |----|
口口口口 |④-⑤-|
6
口口①① |①---|
口口口口 |----|
口口口② |②---|
口口③口 |③---|
7
口④口口 |①---|
③口口口 |②---|
②口口口 |③---|
口①口口 |④---|
8
口口①口 |①---|
口②口① |②-③-|
口口③⑥ |④---|
④口口⑤ |⑤-⑥-|
9
①②口口 |①-②-|
口口③口 |③-④-|
口④口口 |⑤---|
口口口⑤ |----|
10
口①④口 |①---|
①⑤②④ |②-③-|
口③⑥口 |④---|
口口口口 |⑤-⑥-|
11
口①口口 |①---|
①口口口 |----|
口口口口 |----|
口②口口 |②---|
12
口口①口 |①---|
口②口① |②-③-|
口口③⑥ |④---|
④口口⑤ |⑤-⑥-|
13
①②口口 |①-②-|
口⑥③口 |③-④-|
口④⑦口 |⑤---|
口口口⑤ |⑥-⑦-|
14
口口口口 |①---|
⑥口②⑥ |②-③-|
⑤③口⑤ |④---|
口①④口 |⑤-⑥-|
15
①口口① |①---|
口口口口 |----|
口口口口
口口口口

③③③③
口口口口
口②②口 |②---|
口口口口 |③---|
16
口口口口 |①---|
口①口口 |②-③-|
①③②口
口口口口

口口口口
⑥⑦口口
⑤口口口 |④-⑤-|
口口口④ |⑥-⑦-|
17
口口②① |①-②-|
口口口口 |③-④-|
③④口⑤ |⑤-⑥-|
⑥口⑤⑦ |⑦---|
18
口口①口 |①---|
口口③① |②-③-|
口②口口
口口口口

口④口口
④⑥口⑤
⑥口口⑦ |④-⑤-|
口口口口 |⑥-⑦-|
19
口口口口 |①-②-|
口口口④ |③-④-|
口①口口
①③②口

口口口口
⑤口口口
口⑦⑥口 |⑤-⑥-|
口口口口 |⑦---|
20
口口①口 |①---|
口②口① |②-③-|
口口③⑥ |④---|
④口口⑤ |⑤-⑥-|
21
①②口口 |①-②-|
口⑥③口 |③-④-|
口④⑦口 |⑤---|
口口⑤口 |⑥-⑦-|
22
口口口口 |①---|
⑥口②⑥ |②-③-|
⑤③口⑤ |④---|
口①④口 |⑤-⑥-|
23
①口口① |①---|
口②②口 |----|
口③③口 |②-③-|
④④④④ |④---|
24
口口①口 |①---|
口口口① |----|
②口口口 |②---|
口②口口 |----|
25
口口口口 |----|
口③③口 |①---|
口②②口 |②---|
口①①口 |③---|
26
口①口口 |①---|
①口口口 |----|
口口口② |②---|
口口②口 |----|
27
口口口口 |----|
①②③口 |①---|
①②③口 |②---|
口口口口 |③---|
28
口口①口 |①---|
口口口① |----|
②口口口 |②---|
口②口口 |----|
29
口口口口 |----|
口③③口 |①---|
口②②口 |②---|
①口口① |③---|
30
口①口口 |①---|
①口口口 |----|
口口口② |②---|
口口②口 |----|
31
口口口口 |①---|
口口口口 |②---|
口口口口 |③---|
①②③④ |④---|
32
①口口② |①---|
③①口④ |②---|
口③口口 |③---|
口口口口 |④---|
33
口口口口 |①---|
口口口口 |②---|
①口②② |③---|
③③④④ |④---|
34
①口口② |①---|
③①口④ |②---|
口③口口 |③---|
口口口口 |④---|
35
口口口口 |①---|
口口口口 |②---|
①口②② |③---|
③③④④ |④---|
36
①①口② |①---|
③口口④ |②---|
口③口口 |③---|
口口口口 |④---|
37
口口口口 |①---|
口口口口 |②---|
①口②② |③---|
③③④④ |④---|
38
①口口② |①---|
③口口④ |②---|
口③口口 |③---|
口口口口 |④---|
39
⑦口口⑧ |①-②-|
⑤口⑧⑥ |③-④-|
③口口④ |⑤-⑥-|
①口口② |⑦-⑧-|
40
口口口口 |----|
口口口口 |----|
口②口口 |----|
口口①口 |--①②|
41
口口口口 |①---|
④⑤①③ |②---|
②口口③ |③---|
②口口口 |④-⑤-|
42
②口口① |①-②-|
口口口口 |③-④-|
口④③口
口口口口

口口口口
口⑥口口
口口⑦⑤ |⑤---|
口口⑤口 |--⑥⑦|
43
②口口口 |①---|
口口口口 |②---|
②口口口
口①口口

口口口③
口口口口
口口口③ |③---|
口④④口 |④---|
44
口口口口 |①-②③|
⑤①①⑤ |④-⑤-|
口③②④
口口口口

⑥口口⑥
口口口口
口⑧⑦口 |⑥---|
口口口口 |--⑦⑧|
45
④⑤③③ |①---|
②口口① |②---|
②口口① |③---|
口口口口 |④-⑤-|
46
⑤⑤⑤⑤ |①-②-|
③④④③ |③-④-|
②⑦⑥② |⑤---|
口①①口 |--⑥⑦|
47
口③③口 |①---|
④②口④ |②---|
⑤⑥⑥⑤ |③-④-|
②口①口 |⑤-⑥-|
48
口口③② |①-②-|
⑤④口口 |③-④-|
口⑦口口 |⑤---|
①口⑥① |--⑥⑦|
49
②口口③ |①---|
④口口① |②---|
②口③① |③---|
⑤口口口 |④-⑤-|
50
口②①口 |①-②-|
④③口① |③-④-|
口口③②
口口④口

口口口口
口⑦⑥口
⑤口口口 |⑤---|
口⑤口口 |--⑥⑦|
51
口口口口 |①---|
②口口口 |②---|
口口①口
②口口口

口口口口
口口口③
口④④口 |③---|
口口口③ |④---|
52
⑥⑧⑦⑥ |①-②③|
①⑤⑤口 |④-⑤-|
④⑩⑨④ |⑥-⑦-|
①③②口 |⑧-⑨⑩|
53
⑥口⑧⑦ |①-②-|
口口⑤⑤ |③-④-|
④口口③ |⑤-⑥-|
②口口① |⑦-⑧-|
54
口④口口 |①-②-|
②③口口 |③-④-|
①口③④
口①②口

口口⑤口
⑦口口⑤
口⑨⑧口 |⑤-⑥-|
⑥口口口 |⑦-⑧⑨|
55
口口口口 |①-②-|
口④③口 |③-④-|
②口口③
口口①口

⑥⑤⑤⑥
⑦口口⑦
⑧口口⑧ |⑤-⑥-|
口口口口 |⑦-⑧-|
56
口口口口 |①-②-|
④③③④ |③-④-|
口②②口 |⑤---|
⑤①①⑤ |----|
57
①口①口 |①---|
②口口③ |②---|
③口口口 |③---|
④口口口 |④---|
58
口①口口 |①---|
口②①口 |②---|
口③口③ |③---|
口④口口 |④---|
59
①口①口 |①---|
口口②口 |②---|
口④③口 |③---|
③口④口 |④---|
60
①口口① |①---|
口口口② |②---|
③口口③ |③---|
口口口④ |④---|
61
①口③口 |①---|
②口④② |②---|
③口①口 |③---|
④口口口 |④---|
62
口①口① |①---|
口②口口 |②---|
口③口③ |③---|
口④口口 |④---|
63
①口①口 |①---|
口口②口 |②---|
③口③口 |③---|
口口④口 |④---|
64
口口口① |①---|
口口口② |②---|
口口口③ |③---|
①口口④ |④---|
65
口口口口 |①---|
②①①② |②---|
③口口③ |③---|
④口口④ |④---|
66
⑤④③② |①---|
口口口⑥ |----|
口口口口 |--②-③-|
口①①口 |④-⑤-⑥-|
67
口口口口 |①-②-③-|
③②①口 |④-⑤-⑥-|
⑦⑥⑤④ |⑦-⑧-⑨-|
⑪⑩⑨⑧ |⑩-⑪---|

不確定度: 0

最終更新:2014年07月20日 00:44