黒髪乱れし修羅となりて
村正クオリア

ADVANCED

Level: 6
BPM: 150
Notes: 365

1
口口口口 |----|
口口口口 |----|
口口口口 |----|
口口口口 |----|
2
口口口口 |①---|
口①口② |②---|
口口口口 |----|
口口口口 |----|
3
口口口口 |①---|
口口口口 |②---|
②口①口 |----|
口口口口 |----|
4
口口口口 |①---|
口①口② |②---|
口口口口 |----|
口口口口 |----|
5
口口口口 |①---|
口口口口 |②---|
②口①口 |----|
口口口口 |----|
6
口口口口 |①---|
口①口口 |②---|
口口口② |----|
口口口口 |----|
7
口口口口 |①---|
口口②口 |②---|
①口口口 |----|
口口口口 |----|
8
口口口口 |①---|
①口口口 |②---|
口口②口 |----|
口口口口 |----|
9
口口口口 |①---|
口口口① |②---|
口②口口 |----|
口口口口 |----|
10
口口口口 |①---|
②口口口 |--②-|
口①①口
口口口口

口口口口
口③④口
口⑤口口 |③-④-|
口口口口 |--⑤-|
11
口口口口 |①---|
口口口口 |--②-|
②口①口
口口口口

口口口口
口口口口
口④⑤口 |--③-|
口口③口 |④-⑤-|
12
口③口口 |①-②-|
口①②口 |③---|
口口口口 |----|
口口口口 |----|
13
口口口口 |----|
口口口口 |----|
口口口口 |----|
口口口口 |----|
14
口口口口 |----|
①②③口 |--①-|
口④口口 |②-③-|
口口口口 |--④-|
15
口口口口 |①---|
口口口口 |--②-|
②口①口
口口口口

口口口口
口口口口
口④⑤口 |--③-|
口口③口 |④-⑤-|
16
口③口口 |①-②-|
口①②口 |③---|
口口口口 |----|
口口口口 |----|
17
口口口口 |①---|
④口口③ |②---|
口②口口 |③---|
口口①口 |④---|
18
口口③口 |①---|
口口口口 |--②-|
口④②口 |③---|
口①①口 |--④-|
19
口①口口 |①---|
口口口口 |--②-|
口口②口
口口口口

口④③口
口口口口
口口口口 |③---|
口口口口 |④---|
20
①口口① |①---|
口②④口 |--②-|
口口口口 |③---|
口③口口 |--④-|
21
口口口口 |①---|
口②口口 |--②-|
口口口口 |③---|
口③①口 |----|
22
口口③口 |①---|
口口口口 |--②-|
①④②① |③---|
口口口口 |--④-|
23
口①口口 |①---|
口口口口 |--②-|
口口②口
口口口口

口④③口
口口口口
口口口口 |③---|
口口口口 |④---|
24
①口口① |①---|
口②④口 |--②-|
口口口口 |③---|
口③口口 |--④-|
25
口口口口 |①---|
④②口⑤ |--②-|
口口口口 |③---|
口③①口 |④-⑤-|
26
⑤①①④ |①---|
口③③口 |--②-|
口口口② |③---|
口口口口 |④-⑤-|
27
⑤口口④ |①---|
口口口口 |--②-|
口①①口 |③---|
③口口② |④-⑤-|
28
口口口口 |①---|
③⑤⑥④ |--②-|
口①①② |③-④-|
口口口口 |⑤-⑥-|
29
口口④④ |①--②|
⑤口口⑥ |--③-|
口①②③ |-④--|
口①②③ |⑤-⑥-|
30
⑤口口④ |①---|
口③③口 |--②-|
口①①② |③---|
口口口口 |④-⑤-|
31
⑤口口④ |①---|
口口口口 |--②-|
口①①口 |③---|
③口口② |④-⑤-|
32
口口口口 |①---|
口③②口 |--②-|
⑤①①④ |③--④|
口口口口 |--⑤-|
33
②口口① |①---|
④口口③ |②---|
口口口口 |③---|
口口口口 |④---|
34
口⑤④口 |①---|
口③③口 |②---|
②⑤④① |③-④-|
口口口口 |⑤---|
35
②口口① |①---|
④口口③ |②---|
口口口口 |③---|
口口口口 |④---|
36
口⑤④口 |①---|
口③③口 |②---|
②⑤④① |③-④-|
口口口口 |⑤---|
37
②口口① |①---|
④口口③ |②---|
口口口口 |③---|
口口口口 |④---|
38
口⑤④口 |①---|
口③③口 |②---|
②⑤④① |③-④-|
口口口口 |⑤---|
39
②口口① |①---|
④口口③ |②---|
口口口口 |③---|
口口口口 |④---|
40
口⑤④口 |①---|
口③③口 |②---|
②⑤④① |③-④-|
口口口口 |⑤---|
41
①口口① |①---|
口口口口 |----|
口口口口 |----|
口口口口 |----|
42
口口口口 |①---|
②口口口 |--②-|
口①①口
口口口口

口口口口
口③④口
口⑤口口 |③-④-|
口口口口 |--⑤-|
43
口口口口 |①---|
口口口口 |--②-|
②口①口
口口口口

口口口口
口口口口
口④⑤口 |--③-|
口口③口 |④-⑤-|
44
口③口口 |①-②-|
口①②口 |③---|
口口口口 |----|
口口口口 |----|
45
口口口口 |①---|
口②口④ |②---|
①口③口 |③---|
口口口口 |④---|
46
口口口口 |①---|
②③④口 |--②-|
①⑤口① |③-④-|
口口口口 |--⑤-|
47
口口口口 |①---|
口口口口 |--②-|
②口①口
口口口口

口口口口
口口口口
口④⑤口 |--③-|
口口③口 |④-⑤-|
48
口③口口 |①-②-|
口①②口 |③---|
口口口口 |----|
口口口口 |----|
49
口口口口 |①---|
④口口③ |②---|
口②②口 |③---|
口①①口 |④---|
50
口口④口 |①---|
口③⑥口 |--②③|
口⑤②口 |④---|
口①①口 |--⑤⑥|
51
口①口口 |①---|
口③口口 |--②③|
口口②口
口口口口

口⑤④口
口口口口
口口口口 |④---|
口口口口 |⑤---|
52
①口口① |①---|
口②⑤口 |--②③|
口⑥③口 |④---|
口④口口 |--⑤⑥|
53
口口口口 |①---|
口②口口 |--②③|
口口③口 |④---|
口④①口 |----|
54
口口④口 |①---|
口③⑥口 |--②③|
①⑤②① |④---|
口口口口 |--⑤⑥|
55
口①口口 |①---|
口③口口 |--②③|
口口②口
口口口口

口⑤④口
口口口口
口口口口 |④---|
口口口口 |⑤---|
56
①口口① |①---|
口②⑤口 |--②③|
口⑥③口 |④---|
口④口口 |--⑤⑥|
57
口口口口 |①---|
口②口口 |--②③|
口口③口
口口①口

口口口口
口口口口
口口口口 |④---|
口④⑤口 |⑤---|
58
④③②口 |①---|
①口口① |②---|
口口口口 |③---|
口口口口 |④---|
59
口口口口 |①-②-|
⑤④③口 |--③-|
口②口口 |--④-|
口口①口 |--⑤-|
60
口⑦⑥口 |--①-|
口⑤④口 |②-③-|
口③②口 |④-⑤-|
口①口口 |⑥-⑦-|
61
②口口① |①-②-|
④口口③ |③-④-|
⑥口口⑤ |⑤-⑥-|
⑧口口⑦ |⑦-⑧-|
62
口②③④ |①---|
口口口口 |②---|
口口①口 |③---|
口口口口 |④---|
63
口口口口 |①-②-|
口③④⑤ |--③-|
口口②口 |--④-|
口①口口 |--⑤-|
64
口⑥⑦口 |--①-|
口④⑤口 |②-③-|
口②③口 |④-⑤-|
口口①口 |⑥-⑦-|
65
①口口② |①-②-|
③口⑥④ |③-④-|
口⑤口口 |⑤---|
口口口口 |⑥---|
66
①口口① |①---|
口口②口 |----|
口口口口 |②---|
口口口口 |----|
67
口口口口 |①---|
口口口口 |----|
口口①口 |②---|
口口②口 |----|
68
口口口口 |①---|
口②口口 |----|
口口口口 |②---|
口①口口 |----|
69
口口④④ |①--②|
⑤口口⑥ |--③-|
口①②③ |-④--|
口①②③ |⑤-⑥-|
70
口④⑤口 |①---|
口⑥③口 |--②③|
②①①口 |④---|
口口口口 |⑤-⑥-|
71
⑤口口④ |①---|
口口口口 |--②-|
口口①口 |③---|
③口口② |④-⑤-|
72
口⑤④口 |①---|
口③⑥口 |--②③|
口①①② |④--⑤|
口口口口 |--⑥-|
73
口口口口 |①---|
①③口② |②---|
①口④② |--③-|
口⑤口口 |④-⑤-|
74
口口口口 |①---|
②口③① |②---|
②④口① |--③-|
口口⑤口 |④-⑤-|
75
口口口口 |①---|
口口口口 |----|
①口口① |----|
口口口口 |----|

不確定度: 0

最終更新:2014年07月20日 00:42