WAVES; Q;indivi+WISE
Q;indivi+

EXTREME

Level: 9
BPM: 127
Notes: 674

1
口口口口 |----|
口口口口 |----|
口口口口 |----|
口口口口 |----|
2
①口口② |①---|
①③④② |②-③-|
①⑤口② |④--⑤|
口口⑥口 |--⑥-|
3
①口口② |①---|
①口口② |②---|
①口口② |③---|
③④④③ |④---|
4
①口口② |①---|
①③④② |②-③-|
①⑤口② |④--⑤|
口口⑥口 |--⑥-|
5
①口口② |①---|
①口口② |②-③-|
①口口②
口③口口

⑥口口⑥
口口⑤口
口⑤口口 |--④-|
④口口④ |⑤-⑥-|
6
口口口口 |①---|
口②③口 |----|
口②①口 |②---|
口口①口 |--③-|
7
①口口口 |①---|
①口口口 |--②-|
②口口口
②口口口

④口口③
口口口③
口口口口 |③---|
口⑤口口 |④-⑤-|
8
口口口口 |①-②-|
④③口④ |③-④⑤|
①⑤②①
口口口口

口口口口
口口⑥口
⑦口口⑧ |⑥-⑦-|
口⑨⑨口 |⑧--⑨|
9
④①口口 |--①②|
④⑤②口 |③-④⑤|
口③口口
口口口口

口口口⑧
口口⑨⑧
⑦口口⑥ |⑥-⑦-|
⑦口口⑥ |⑧--⑨|
10
①口口④ |①-②-|
①口口④ |③-④-|
口口③口
口②口口

口口口口
口口口口
⑥⑤口口 |--⑤-|
口⑦⑥⑦ |⑥-⑦-|
11
①口口口 |----|
②口口③ |--①-|
③口口④ |②-③-|
口口口⑤ |④-⑤-|
12
③口口口 |--①-|
口②口口 |②-③-|
口口①③
①①口口

口④口口
口口⑤⑦
⑤⑤口口 |④-⑤-|
口⑦⑥口 |⑥-⑦-|
13
口③口口 |--①-|
①①④口 |--②-|
口⑤②② |③-④-|
④口口⑤ |⑤---|
14
口口②③ |①-②-|
口口④口 |③④⑤⑥|
口口①⑤
口⑥①口

⑧⑧口⑨
⑦⑦⑩口
口口口口 |⑦--⑧|
口口口口 |--⑨⑩|
15
④口口口 |①-②-|
④③口口 |③-④-|
①口②口
①口口口

口⑦口⑦
口口口⑦
⑥口口⑤ |⑤-⑥-|
⑥⑤⑥⑤ |⑦---|
16
⑤口⑤口 |①-②③|
①②①口 |④-⑤-|
口口③口
口④口口

口口口口
⑧⑩⑧口
口⑦⑨口 |⑥-⑦⑧|
口口⑥口 |--⑨⑩|
17
口②①口 |①-②-|
⑤口⑤口 |③-④⑤|
口④口口
口口③④

⑥口⑧口
口⑧口⑧
口口⑦口 |--⑥-|
口口口口 |⑦-⑧-|
18
口①④口 |--①-|
①④①④ |--②-|
口③②口 |--③-|
③②③② |--④-|
19
口①口口 |--①-|
①口①口 |--②-|
口口口口
②口②口

⑥口口⑥
⑤口口⑤
口④口③ |③-④-|
口口口口 |⑤-⑥-|
20
口③口④ |----|
口口③⑤ |①-②-|
④①②口 |③--④|
口②①口 |--⑤-|
21
①口⑥口 |①---|
①⑤⑥口 |②-③-|
口④③② |④--⑤|
口④口② |⑥---|
22
①口口② |①---|
①③④② |②-③-|
①⑤口② |④--⑤|
口口⑥口 |--⑥-|
23
①口口② |①---|
①④③② |②-③-|
①口⑤② |④--⑤|
口⑥口口 |--⑥-|
24
①口口② |①---|
①③④② |②-③-|
①⑤口② |④--⑤|
口口⑥口 |--⑥-|
25
①口口③ |①-②-|
①口④③ |③-④-|
①口口③
口②口口

口口口口
口⑤口口
口口⑥口 |⑤--⑥|
口⑦口口 |--⑦-|
26
①口口口 |①-②③|
①⑤口④ |④⑤⑥⑦|
⑥③口②
⑦口口口

口⑩⑨⑨
口⑪口口
口口口口 |⑧--⑨|
口口⑧⑧ |--⑩⑪|
27
⑦⑦口⑤ |①--②|
⑥⑥④口 |-③④⑤|
①口①③ |⑥--⑦|
口②口② |----|
28
⑤口⑦口 |①②③④|
口⑥④⑧ |⑤⑥⑦⑧|
①口③口
①口②口

口⑨口⑪
⑩口⑫口
口⑨口口 |⑨--⑩|
⑩口口口 |--⑪⑫|
29
③口口口 |①--②|
口④口口 |--③④|
⑤②⑥① |⑤--⑥|
口②⑥口 |----|
30
口口口口 |①---|
①①①① |----|
②②②② |②---|
口口口口 |----|
31
口口口口 |①---|
①①①① |②---|
②②②② |③---|
③③③③ |----|
32
口③①口 |----|
④②④② |①-②-|
口③①口 |③-④-|
⑤⑥⑤⑥ |⑤-⑥-|
33
①③①③ |①---|
口②③② |②-③-|
①③①③ |----|
口④④口 |--④-|
34
口口口口 |①---|
①①①① |----|
②②②② |②---|
口口口口 |----|
35
口口口口 |①---|
①①①① |②---|
②②②②
口口口口

口口口口
④口口④
口口口口 |③---|
③③③③ |④---|
36
①②④① |①---|
③⑤③⑤ |②-③-|
口②④口 |④-⑤-|
⑦⑥⑦⑥ |⑥-⑦-|
37
③①③① |①---|
②③②口 |②-③-|
③①③① |----|
④口口④ |④---|
38
②口口口 |①---|
口③②口 |②-③-|
①口口①
口口口口

口口口口
口口口④
⑥④⑤口 |④-⑤-|
口⑦⑥口 |⑥-⑦-|
39
口口口① |①-②-|
③①②口 |③-④-|
口④③口
口口口口

口口口⑦
口口口⑦
⑥口口⑤ |⑤-⑥-|
⑥口口⑤ |⑦---|
40
②口口口 |①---|
①③②④ |②-③-|
⑥④⑤口 |④-⑤-|
口⑦⑥口 |⑥-⑦-|
41
口口口① |①-②-|
③①②口 |③-④-|
口④③口
口口口口

口口口⑦
口口口⑦
⑥口口⑤ |⑤-⑥-|
⑥口口⑤ |⑦---|
42
②口口口 |①---|
①③②④ |②-③-|
⑥④⑤口 |④-⑤-|
口⑦⑥口 |⑥-⑦-|
43
口口口① |①-②-|
③①②口 |③-④-|
口④③口
口口口口

⑤⑤口口
口口口口
口口⑥⑥ |----|
口口口口 |⑤-⑥-|
44
口口③③ |①-②-|
口②口① |③-④-|
④④口口
口口口口

口口口口
⑦⑦口口
口口⑥口 |⑤-⑥-|
⑤口⑧⑧ |⑦-⑧-|
45
口口口口 |①-②-|
口口③③ |③-④-|
口②口①
④④口口

口⑥⑦口
口口口口
口⑥⑦口 |--⑤-|
口口⑤⑤ |⑥-⑦-|
46
①口口② |①---|
①口③② |②---|
①④口② |③--④|
口口⑤口 |--⑤-|
47
①④⑤② |①---|
①⑤④② |②---|
①口口② |③-④-|
口③口口 |⑤---|
48
口口口口 |①---|
口②口口 |----|
口②①口 |②---|
口口①口 |----|
49
①口口口 |①---|
①②口口 |--②-|
口口口口
口口口②

口口口口
④口⑤③
口口口口 |③-④-|
⑤③④口 |⑤---|
50
②②②② |①---|
口口口口 |--②-|
①①①① |----|
口口口口 |----|
51
口口口口 |----|
①口②① |--①-|
口③口③ |--②-|
口口③口 |--③-|
52
③②③② |--①-|
口③②口 |--②-|
①④①④ |--③-|
口①④口 |--④-|
53
口口口口 |--①-|
口口口口 |--②-|
①口①口
②①口②

口③④口
③口口④
④口口③ |--③-|
口⑤⑤口 |④-⑤-|
54
口口口口 |----|
口口口口 |----|
口口口口 |----|
口①口口 |--①-|
55
④口③④ |①---|
③②④③ |②---|
②口①② |③---|
①口口① |④---|
56
口口②④ |①-②-|
口③口口 |③-④-|
①①②④
口③口口

⑥⑥口口
⑤口⑦⑦
⑧⑧口口 |⑤-⑥-|
⑤口口口 |⑦-⑧-|
57
口口①口 |①②③-|
口②口口 |④-⑤-|
口口③⑤
口④④口

口口⑧口
口⑨口口
⑦⑥⑧口 |⑥-⑦-|
口⑨口口 |⑧-⑨-|
58
④②⑥⑥ |①-②-|
⑧⑧③⑤ |③-④-|
④②⑦① |⑤-⑥-|
口口③⑤ |⑦-⑧-|
59
⑤口口⑥ |----|
⑤口④⑥ |--①-|
口③口口 |②-③④|
口①口② |⑤-⑥-|
60
口口口口 |①-②-|
口①⑤口 |③-④⑤|
②④②④
口③口④

⑨⑥⑦口
⑨口口口
口口⑧口 |⑥-⑦-|
口口口口 |⑧-⑨-|
61
口口口④ |①②③-|
口口③口 |④-⑤-|
口②口口
⑤口①⑤

口⑦⑦口
⑥⑧⑧⑥
口⑨⑨口 |⑥-⑦-|
口口口口 |⑧-⑨-|
62
⑤④③⑤ |①-②-|
⑥③④⑥ |----|
②口口② |③-④-|
口①①口 |⑤-⑥-|
63
④口③④ |①---|
③②④③ |②---|
②口①② |③---|
①口口① |④---|


不確定度: 0

タグ:

+ タグ編集
  • タグ:

このサイトはreCAPTCHAによって保護されており、Googleの プライバシーポリシー利用規約 が適用されます。

最終更新:2013年04月07日 23:13