Sky Is The Limit
Sota F. feat.Anna

EXTREME

Level: 9
BPM: 150
Notes: 670

1
口口口口 |----|
口口口口 |----|
口口口口 |----|
口口口口 |----|
2
口口③③ |①②③-|
口口⑤⑤ |④⑤-⑥|
口④口⑥
①②口口

⑦⑦口口
⑨⑨口口
口口⑪口 |⑦-⑧⑨|
⑫⑩⑧口 |-⑩⑪⑫|
3
⑤⑤②① |①②③-|
⑥⑧⑪④ |④⑤-⑥|
③③⑨⑨ |⑦-⑧⑨|
⑩⑫⑦⑦ |-⑩⑪⑫|
4
⑤⑤②① |①②③-|
口⑥口④ |④⑤-⑥|
③③口口
口口口口

口口口口
口口⑪口
⑫口⑨⑨ |⑦-⑧⑨|
⑧⑩⑦⑦ |-⑩⑪⑫|
5
⑤⑤②① |①②③-|
③③口口 |④⑤-⑥|
口⑥口口
口口口④

口口口口
⑪口口⑦
⑧口⑩⑨ |⑦-⑧⑨|
口口口⑫ |-⑩⑪⑫|
6
口口③③ |①②③-|
口口⑤⑤ |④⑤-⑥|
口④口⑥
①②口口

⑦⑦口口
⑨⑨口口
口口⑪口 |⑦-⑧⑨|
⑫⑩⑧口 |-⑩⑪⑫|
7
⑤⑤②① |①②③-|
⑥口口④ |④⑤-⑥|
③③口口
口口口口

口口口⑪
口⑧口口
口⑫⑨⑨ |⑦-⑧⑨|
⑩口⑦⑦ |-⑩⑪⑫|
8
⑥①①⑦ |①---|
②③④⑤ |----②③④⑤|
口口口口 |⑥-⑦-|
⑪⑩⑨⑧ |----⑧⑨⑩⑪|
9
⑨⑩⑪⑫ |①---|
⑤⑥⑦⑧ |②---|
②③④① |③④--|
口口口口 |⑤⑥⑦⑧⑨⑩⑪⑫|
10
口口④口 |----|
⑤②⑤④ |①---|
①③口② |②-③-|
口①口口 |④-⑤-|
11
口口口口 |①-②-|
口口口口 |③-④-|
②⑤②⑥ |⑤---|
①④③④ |⑥---|
12
①②口口 |①---|
②口口口 |②---|
口口口口
口口口口

⑥口⑥口
口④口③
口③口⑤ |③-④-|
口口⑤口 |⑤-⑥-|
13
口⑦口口 |①-②-|
口④口④ |③-④-|
②⑥②口 |⑤---|
③⑤⑥① |⑥-⑦-|
14
口口②① |①---|
口口口② |②---|
口口口口
口口口口

口⑥口⑥
③口④口
⑤口③口 |③-④-|
口⑤口口 |⑤-⑥-|
15
口⑥口口 |①-②-|
④⑥④口 |③-④-|
口②⑦② |⑤-⑥-|
③⑤⑦① |⑦---|
16
⑥口⑤⑥ |①---|
口③口⑤ |②---|
②④口③ |③-④-|
①②口口 |⑤-⑥-|
17
⑦口⑦口 |①-②-|
口⑤⑥口 |③-④-|
②⑦②⑦ |⑤-⑥-|
③④①④ |⑦---|
18
口口⑤⑤ |①---|
⑥③⑥⑤ |②---|
②④①③ |③-④-|
②②①口 |⑤-⑥-|
19
口口口口 |①-②-|
口③口⑥ |③-④-|
②⑤②⑥ |⑤---|
①④③④ |⑥---|
20
①②口口 |①---|
②口②口 |②---|
口口口口
口口口口

⑥口⑥口
口④口③
口③口⑤ |③-④-|
口⑤⑤口 |⑤-⑥-|
21
口口口口 |①-②-|
③④口④ |③-④-|
②口②口
③口口①

口⑦口口
口口口口
口⑥口口 |⑤---|
口⑤⑥⑥ |⑥-⑦-|
22
口口②① |①---|
口②口② |②---|
口口口口
口口口口

口⑥口⑥
③口④口
⑤口③口 |③-④-|
口⑤⑤口 |⑤-⑥-|
23
④口口口 |①-②-|
③口④口 |③-④-|
口②口②
③口口①

口⑥口口
口⑥口口
口口⑦口 |⑤-⑥-|
口⑤⑦⑦ |⑦---|
24
⑥⑤⑤⑥ |①---|
④③②⑤ |②---|
②⑥口③ |③-④-|
①②口口 |⑤-⑥-|
25
口③④口 |--①-|
②②①口 |--②-|
口口②② |-③④-|
①⑤⑥① |⑤⑥--|
26
⑤⑤口③ |①--②|
口②④③ |--③-|
①②④口 |-④--|
①口⑥⑥ |⑤-⑥-|
27
口⑤⑥口 |-①--|
口口④④ |②--③|
①①③③ |--④-|
②②口口 |-⑤⑥-|
28
口口口③ |①--②|
①②口口 |--③-|
口②口③
①口口口

口口口口
口口④口
⑤口④口 |-④--|
⑤口⑥⑥ |⑤-⑥-|
29
口①②口 |-①②-|
③⑦⑧③ |③-④⑤|
口④⑤口 |--⑥-|
⑥口口⑥ |-⑦⑧-|
30
口口口口 |①--②|
①口口③ |--③-|
①②口③
口②口口

口口④口
⑤⑤④口
口口口口 |-④--|
口口⑥⑥ |⑤-⑥-|
31
口②③口 |--①-|
④⑥⑦④ |②③-④|
口①①口 |--⑤-|
口⑤⑤口 |-⑥⑦-|
32
①口口① |-①--|
③口口④ |②--③|
③⑤⑤④ |--④-|
②⑥⑥② |-⑤-⑥|
33
③口口③ |-①②-|
口①②口 |③-④⑤|
④口口⑤
口口口口

口口口口
口⑦⑦口
口口口口 |--⑥-|
口⑥⑥口 |-⑦--|
34
口口口口 |①---|
①口口① |----|
口口口口 |----|
①口口① |----|
35
口口口口 |----|
口口口口 |----|
口口口口 |----|
口口口口 |----|
36
口口口口 |----|
口口口口 |----|
口口口口 |----|
口口口口 |----|
37
口口口口 |----|
口口口口 |----|
口口口口 |----|
口口口口 |----|
38
⑩⑪⑫⑯ |①②③④|
⑮⑨⑧⑦ |⑤⑥⑦⑧|
④⑤⑥⑭ |⑨⑩⑪⑫|
⑬③②① |⑬⑭⑮⑯|
39
⑫⑪⑩⑬ |①②③④|
⑭⑦⑧⑨ |⑤⑥⑦⑧|
⑥⑤④⑮ |⑨⑩⑪⑫|
⑯①②③ |⑬⑭⑮⑯|
40
⑩⑪⑫⑯ |①②③④|
⑮⑨⑧⑦ |⑤⑥⑦⑧|
④⑤⑥⑭ |⑨⑩⑪⑫|
⑬③②① |⑬⑭⑮⑯|
41
⑤口⑧口 |①②③④|
口口口⑥ |⑤⑥⑦⑧|
⑦①④口
口③②口

口⑨口⑫
⑬口⑬口
口⑬口⑬ |⑨⑩⑪⑫|
⑪口口⑩ |⑬---|
42
①③口⑤ |①---|
口①⑥③ |②-③-|
④⑤②口 |④---|
口口④口 |⑤-⑥-|
43
口口口口 |①---|
口①口口 |②---|
口口口①
口②口口

口口口口
口⑤口口
④口③⑤ |③---|
③口④口 |④-⑤-|
44
①口③口 |①---|
口口①③ |②-③-|
口口口口
口口口②

口口口口
⑥口⑤口
④⑦口口 |④--⑤|
⑤④口口 |⑥-⑦-|
45
口①③① |①---|
口口口口 |②-③-|
口口口③
口口口②

口⑥口口
④口口口
口口口口 |④---|
⑤④口口 |⑤-⑥-|
46
口口③① |①---|
③口①口 |②-③-|
口口口口
口口口②

口口口口
口口⑥口
口⑥⑤④ |④---|
口④口口 |⑤-⑥-|
47
①①口口 |①---|
口口口口 |②---|
口口口口
②口口口

口④口④
口口口口
⑤口⑤③ |③---|
口③口口 |④-⑤-|
48
①口①口 |①---|
口口③口 |②-③-|
口①口口
②口口③

口口口口
④⑦口口
⑤⑥口⑦ |④--⑤|
口④⑤口 |⑥-⑦-|
49
①口①口 |①---|
口口③口 |②-③-|
口④口口 |④---|
③⑤口② |⑤---|
50
①③口口 |①---|
①①⑦③ |②-③-|
④⑤⑤② |④--⑤|
⑥⑥④② |⑥-⑦-|
51
口口口口 |①---|
口①口② |②---|
口口口①
口口口②

口口口口
口⑤口口
④口③⑤ |③---|
③④④口 |④-⑤-|
52
①口③口 |①---|
口口①③ |②-③-|
口口口口
口口口②

口口口口
⑤⑤⑤口
④⑥⑥口 |④---|
口④口口 |⑤-⑥-|
53
口①③① |①---|
口口口口 |②-③-|
口口口③
口口②②

口⑥口口
④口口口
⑤口口口 |④---|
⑤④口口 |⑤-⑥-|
54
⑦口③① |①---|
③⑤①⑦ |②-③-|
⑥口②④ |④--⑤|
⑥④②⑤ |⑥-⑦-|
55
口口口口 |①---|
口口②口 |②---|
口①①口
口口②口

口④口④
口④口口
⑤口⑤③ |③---|
口③口口 |④-⑤-|
56
①口①口 |①---|
口口③② |②-③-|
口①口口
口口口③

口口口口
④⑦口口
⑤⑥口⑦ |④--⑤|
口④⑤口 |⑥-⑦-|
57
①口①口 |①---|
口口口口 |②---|
口口口口
②口口口

⑥口⑥口
④口④口
口⑤口⑤ |③-④-|
口③⑤口 |⑤-⑥-|
58
口⑨口③ |①-②-|
口⑤⑥口 |③--④|
②⑦⑧口 |-⑤⑥-|
口口④① |⑦⑧-⑨|
59
口⑩口口 |-①②-|
①⑥⑦② |③④-⑤|
③⑧⑨④ |-⑥⑦-|
口口⑤口 |⑧⑨-⑩|
60
口口⑤口 |-①②-|
①⑥⑦② |③④-⑤|
③⑧⑨④ |-⑥⑦-|
⑩口口口 |⑧⑨-⑩|
61
口⑤⑤口 |-①②-|
①口口② |③④-⑤|
③口口④
口口口口

口口口口
⑨⑦⑧⑨
口⑦⑧口 |--⑥-|
⑥⑦⑧⑥ |⑦⑧-⑨|


不確定度: 0

最終更新:2013年12月29日 01:45